ML
     
  Уважаемый Гость!
Вы можете поддержать проект и зарегистрироваться у наших партнеров - онлайн-стратегия MyLands. При регистрации в игре Вы получите код, который сможете активировать после регистрации на pirat.ca и получить 1000 дублонов.

Ваш код:
0ea1bf889af42fca5f67d0a391efb3400850ad7c
 
     

Москва слезам не верит (Владимир Меньшов) [1979 г., драма, мелодрама, комедия, DVDRip]

Ответить на тему
 
Автор
Сообщение

Пост 20-Ноя-2011 20:59

[Q] 

kufre

Корсар

Москва слезам не верит
Год выпуска: 1979
Жанр: драма, мелодрама, комедия
Продолжительность: 02:22:09
Режиссер: Владимир Меньшов
В ролях: Вера Алентова, Алексей Баталов, Ирина Муравьева, Александр Фатюшин, Раиса Рязанова, Борис Сморчков, Юрий Васильев, Наталья Вавилова, Олег Табаков, Евгения Ханаева, Валентина Ушакова, Виктор Уральский, Зоя Федорова, Лия Ахеджакова, Владимир Басов, Иннокентий Смоктуновский, Татьяна Конюхова, Георгий Юматов, Леонид Харитонов, Вениамин Нечаев, Павел Рудаков, Муза Крепкогорская
Описание: Москва пятидесятых годов. Три молодые провинциалки приезжают в Москву в поисках того, что ищут люди во всех столицах мира — любви, счастья и достатка. Их судьбы складываются именно так, как предполагает характер каждой из девушек.
Антонина выходит замуж, растит детей, любит мужа. Людмиле Москва представляется лотереей, в которой она должна выиграть свое особенное счастье. Катерина же — отчаянно влюбляется, но избранник ее оставляет. Однако она не опускает руки, в одиночку растит дочь и к тому же успевает сделать блестящую карьеру. В сорок лет судьба дарит ей встречу с прекрасным человеком и настоящую любовь…
Доп. информация: Режиссер картины Владимир Меньшов сыграл в фильме небольшую роль-камео. Его герой - это один из друзей Гоши, которые присутствовали на пикнике.
На роль Катерины Тихомировой приглашали Ирину Купченко и Маргариту Терехову.
Занимает по посещаемости 2-е место среди отечественных фильмов за всю историю советского кинопроката.
Лучший фильм по опросу журнала «Советский экран» в 1981 году.
Когда герои Алентовой и Баталова включают телевизор (перед приходом Александры), то «сетку» на экране сопровождает вальс из кинофильма «Розыгрыш» - предыдущей режиссёрской работы Владимира Меньшова. Подобный приём используется в следующем фильме Меньшова «Любовь и голуби», где по телевизору показывают фрагмент из «Москва слезам не верит».
Сценарий фильма был написан Валентином Чёрных для конкурса на лучший фильм о Москве. Он занял всего лишь третье место. Правда, два первых места вообще никому не присудили: не нашли достойных.
На роль сорокалетнего слесаря Гоши режиссёр пробовал Виталия Соломина, Леонида Дьячкова, других актёров. Ни один не подходил. И тогда Меньшов решил, что в крайнем случае сыграет эту роль сам.
Мужа Антонины мог сыграть Юрий Кузьменков. Но ассистент тогда привела двух актёров, которых Меньшов не знал. Это Борис Сморчков, его утвердили на роль Николая, и Александр Фатюшин, ставший в фильме хоккеистом Гуриным.
Исчез из фильма эпизод, где хоккеист Гурин (Александр Фатюшин), объявивший, что «завязал со спиртным и уходит на тренерскую работу», снова появляется пьяный и говорит: «Займи ещё трёшку для ровного счёта». Режиссёра попросили это убрать, сказав: «Давайте оставим надежду. Пусть зритель верит, что Гурин исправился».
Формат : AVI
Формат/Информация : Audio Video Interleave
Профиль формата : OpenDML
Размер файла : 2,74 Гбайт
Продолжительность : 2 ч. 22 м.
Общий поток : 2755 Кбит/сек
Программа кодирования : VirtualDubMod 1.5.4.1 (build 2178/release)
Библиотека кодирования : VirtualDubMod build 2178/release
Видео
Идентификатор : 0
Формат : MPEG-4 Visual
Параметр BVOP формата : 1
Параметр QPel формата : Нет
Параметр GMC формата : Без точки перехода
Параметр матрицы формата : Default (H.263)
Режим смешивания : Сжатый битовый поток
Идентификатор кодека : DX50
Идентификатор кодека/Подсказка : DivX 5
Продолжительность : 2 ч. 22 м.
Битрейт : 2300 Кбит/сек
Ширина : 720 пикс.
Высота : 544 пикс.
Соотношение сторон : 4:3
Частота кадров : 25,000 кадр/сек
Цветовое пространство : YUV
Подвыборка цветности : 4:2:0
Битовая глубина : 8 бит
Тип развёртки : Прогрессивная
Метод сжатия : С потерями
Бит/(Пиксели*Кадры) : 0.235
Размер потока : 2,28 Гбайт (83%)
Библиотека кодирования : DivX 5.2.1 (WaffleDay) (UTC 2004-09-08)
Аудио
Идентификатор : 1
Формат : AC-3
Формат/Информация : Audio Coding 3
Расширение режима : CM (complete main)
Идентификатор кодека : 2000
Продолжительность : 2 ч. 22 м.
Вид битрейта : Постоянный
Битрейт : 448 Кбит/сек
Каналы : 6 каналов
Расположение каналов : Front: L C R, Side: L R, LFE
Частота : 48,0 КГц
Битовая глубина : 16 бит
Метод сжатия : С потерями
Задержка видео : 1 с. 257 мс.
Размер потока : 456 Мбайт (16%)
Выравнивание : Разделение по промежуткам
Продолжительность промежутка : 96 мс. (2,40 видеокадра)
Время предзагрузки промежутка : 96 ms
Источник/Качество: DVDRip
Формат: AVI
Видео кодек: DivX
Аудио кодек: AC3
Видео: 720x544 (1.32:1), 25 fps, DivX Codec 5.2.1 build 1328 ~2300 kbps avg, 0.23 bit/pixel
Аудио: 48 kHz, AC3 Dolby Digital, 3/2 (L,C,R,l,r) + LFE ch, ~448 kbps






Download / Скачать

Хотите скачать бесплатно? Зарегистрируйтесь на сайте (ссылка на регистрацию). Pirat.ca - самый быстрый торрент трекер в рунете!

Как скачивать  ·   Что такое торрент  ·   Рейтинг и ограничения

Пост 20-Ноя-2011 21:06 (спустя 6 минут)

Топик был перенесен из форума Наше Кино в форум Золотая коллекция

Skinwalker
 

CHARLI2236

1090

Пост 13-Дек-2011 13:57 (спустя 22 дня)

[Q] 

спасибо

_________________
[Профиль]  [ЛС] 

Pesok

Гроза морей

Пост 15-Янв-2012 11:15 (спустя 1 месяц 1 день)

[Q] 

огромное спасибо! этого фильма у меня как раз не было еще в видеотеке старых супер фильмов(уже переваливает за 2ТБ - пора покупать новый 3тб(или больше) внешний носитель)

_________________
[Профиль]  [ЛС] 

dimkoba

35102

Пост 18-Янв-2012 23:08 (спустя 3 дня)

[Q] 

да фильм на все времена

_________________
[Профиль]  [ЛС] 

RIIDDIK

Шкипер

84

Пост 11-Фев-2012 12:00 (спустя 23 дня)

[Q] 

[Профиль]  [ЛС] 

abc7

Гроза морей

464

Пост 12-Фев-2012 00:12 (спустя 12 часов)

[Q] 

Приятно вспомнить старую Москву...... ни одного гастарбайтера))
[Профиль]  [ЛС] 

Pesok

Гроза морей

Пост 16-Ноя-2012 08:07 (спустя 9 месяцев 4 дня)

[Q] 


_________________
[Профиль]  [ЛС] 

Simsim

Морской Волк

Пост 24-Ноя-2014 10:02 (спустя 2 года)

[Q] 

Спасибо! хорошие фильмы золотой коллекции.
[Профиль]  [ЛС] 
Показать сообщения:    
Ответить на тему

Текущее время: Сегодня 00:36

Часовой пояс: GMT + 4



Вы не можете начинать темы
Вы не можете отвечать на сообщения
Вы не можете редактировать свои сообщения
Вы не можете удалять свои сообщения
Вы не можете голосовать в опросах
Вы не можете прикреплять файлы к сообщениям
Вы не можете скачивать файлы

▼ Вниз