ML
     
  Уважаемый Гость!
Вы можете поддержать проект и зарегистрироваться у наших партнеров - онлайн-стратегия MyLands. При регистрации в игре Вы получите код, который сможете активировать после регистрации на pirat.ca и получить 1000 дублонов.

Ваш код:
c3360d664ceb84802c84b88ed062a5d134e2ba97
 
     

Большая перемена [1972 г.,Алексей Коренев, Комедия, DVDRip]

Ответить на тему
 
Автор
Сообщение

Пост 26-Ноя-2011 14:23

[Q] 

megamastor

Большая перемена
Год выпуска: 1972
Жанр: Комедия
Продолжительность: 4:17:45
Режиссер: Алексей Коренев
В ролях: Евгений Леонов, Михаил Кононов, Ролан Быков, Александр Збруев, Светлана Крючкова, Юрий Кузьменков, Светлана Богунова, Наталья Гвоздикова, Савелий Крамаров, Виктор Проскурин, Людмила Касаткина, Михаил Яншин, Валентина Сперантова, Лев Дуров, Валентина Талызина, Валерий Носик, Нина Маслова, Ирина Азер, Валерий Хлевинский, Анастасия Георгиевская, Инна Жилина, Людмила Анциферова, Валентина Кузнецова, Люсьена Овчинникова, Лев Дубов, Иван Рыжов, Владимир Басов
Описание: По мотивам повести Г. Садовникова "Иду к людям". Композитор: Э.Колмановский. Текст песен: Михаил Танич. 4-е серии.
Молодой подающий надежды аспирант-историк, поссорившись со своей невестой (тоже аспирантом), бросает науку и идет работать в вечернюю школу. Взаимоотношения с учениками (многие из которых старше его) "учат его жизни", возвращая в конечном итоге к своей невесте.
Дополнительная информация: Полная покадровая реставрация изображения и ремастеринг звука
Качество: DVDRip
Формат: AVI
Видео кодек: DivX
Аудио кодек: MP3
Видео: DivX 5.2.1 codec, 720X576, 2264Kbps, 25 fps PAL
Аудио: Lame MP3 Encoder, 128 KBs, 44.1KHz, 16 bps, 2ch stereo
общее
Полное имя : bolshaya_peremena_1972_.dvdrip_restavraciya._seriya.1[pirat.ca].avi
Формат : AVI
Формат/Информация : Audio Video Interleave
Размер файла : 1,06 Гбайт
Продолжительность : 1 ч. 3 м.
Общий поток : 2403 Кбит/сек
Видео
Идентификатор : 0
Формат : MPEG-4 Visual
Параметр BVOP формата : 1
Параметр QPel формата : Нет
Параметр GMC формата : Без точки перехода
Параметр матрицы формата : Default (H.263)
Режим смешивания : Сжатый битовый поток
Идентификатор кодека : DX50
Идентификатор кодека/Подсказка : DivX 5
Продолжительность : 1 ч. 3 м.
Битрейт : 2266 Кбит/сек
Ширина : 720 пикселей
Высота : 576 пикселей
Соотношение сторон : 5:4
Частота кадров : 25,000 кадров/сек
Стандарт вещания : PAL
Цветовое пространство : YUV
Субдискретизация насыщенности : 4:2:0
Битовая глубина : 8 бит
Тип развёртки : Прогрессивная
Метод сжатия : С потерями
Бит/(Пиксели*Кадры) : 0.219
Размер потока : 1024 Мбайт (94%)
Библиотека кодирования : DivX 5.2.1 (WaffleDay) (UTC 2004-09-08)
Аудио
Идентификатор : 1
Формат : MPEG Audio
Версия формата : Version 1
Профиль формата : Layer 3
Идентификатор кодека : 55
Идентификатор кодека/Подсказка : MP3
Продолжительность : 1 ч. 3 м.
Вид битрейта : Постоянный
Битрейт : 128 Кбит/сек
Каналы : 2 канала
Частота : 44,1 КГц
Метод сжатия : С потерями
Задержка видео : 26 мс.
Размер потока : 57,8 Мбайт (5%)
Выравнивание : Разделение по промежуткам
Продолжительность промежутка : 40 мс. (1,00 видеокадр)
Заголовок : Audio Stream
Библиотека кодирования : LAME3.92
-----------------------------------------------------------------------------------------------------
общее
Полное имя : bolshaya_peremena_1972_.dvdrip_restavraciya._seriya.2[pirat.ca].avi
Формат : AVI
Формат/Информация : Audio Video Interleave
Размер файла : 1,07 Гбайт
Продолжительность : 1 ч. 7 м.
Общий поток : 2263 Кбит/сек
Видео
Идентификатор : 0
Формат : MPEG-4 Visual
Параметр BVOP формата : 1
Параметр QPel формата : Нет
Параметр GMC формата : Без точки перехода
Параметр матрицы формата : Default (H.263)
Режим смешивания : Сжатый битовый поток
Идентификатор кодека : DX50
Идентификатор кодека/Подсказка : DivX 5
Продолжительность : 1 ч. 7 м.
Битрейт : 2125 Кбит/сек
Ширина : 720 пикселей
Высота : 576 пикселей
Соотношение сторон : 5:4
Частота кадров : 25,000 кадров/сек
Стандарт вещания : PAL
Цветовое пространство : YUV
Субдискретизация насыщенности : 4:2:0
Битовая глубина : 8 бит
Тип развёртки : Прогрессивная
Метод сжатия : С потерями
Бит/(Пиксели*Кадры) : 0.205
Размер потока : 1,00 Гбайт (94%)
Библиотека кодирования : DivX 5.2.1 (WaffleDay) (UTC 2004-09-08)
Аудио
Идентификатор : 1
Формат : MPEG Audio
Версия формата : Version 1
Профиль формата : Layer 3
Идентификатор кодека : 55
Идентификатор кодека/Подсказка : MP3
Продолжительность : 1 ч. 7 м.
Вид битрейта : Постоянный
Битрейт : 128 Кбит/сек
Каналы : 2 канала
Частота : 44,1 КГц
Метод сжатия : С потерями
Задержка видео : 26 мс.
Размер потока : 61,9 Мбайт (6%)
Выравнивание : Разделение по промежуткам
Продолжительность промежутка : 40 мс. (1,00 видеокадр)
Заголовок : Audio Stream
Библиотека кодирования : LAME3.92
-----------------------------------------------------------------------------------------------------
Общее
Полное имя : bolshaya_peremena_1972_.dvdrip_restavraciya._seriya.3[pirat.ca].avi
Формат : AVI
Формат/Информация : Audio Video Interleave
Размер файла : 1,07 Гбайт
Продолжительность : 1 ч. 3 м.
Общий поток : 2406 Кбит/сек
Видео
Идентификатор : 0
Формат : MPEG-4 Visual
Параметр BVOP формата : 1
Параметр QPel формата : Нет
Параметр GMC формата : Без точки перехода
Параметр матрицы формата : Default (H.263)
Режим смешивания : Сжатый битовый поток
Идентификатор кодека : DX50
Идентификатор кодека/Подсказка : DivX 5
Продолжительность : 1 ч. 3 м.
Битрейт : 2268 Кбит/сек
Ширина : 720 пикселей
Высота : 576 пикселей
Соотношение сторон : 5:4
Частота кадров : 25,000 кадров/сек
Стандарт вещания : PAL
Цветовое пространство : YUV
Субдискретизация насыщенности : 4:2:0
Битовая глубина : 8 бит
Тип развёртки : Прогрессивная
Метод сжатия : С потерями
Бит/(Пиксели*Кадры) : 0.219
Размер потока : 1,01 Гбайт (94%)
Библиотека кодирования : DivX 5.2.1 (WaffleDay) (UTC 2004-09-08)
Аудио
Идентификатор : 1
Формат : MPEG Audio
Версия формата : Version 1
Профиль формата : Layer 3
Идентификатор кодека : 55
Идентификатор кодека/Подсказка : MP3
Продолжительность : 1 ч. 3 м.
Вид битрейта : Постоянный
Битрейт : 128 Кбит/сек
Каналы : 2 канала
Частота : 44,1 КГц
Метод сжатия : С потерями
Задержка видео : 26 мс.
Размер потока : 58,5 Мбайт (5%)
Выравнивание : Разделение по промежуткам
Продолжительность промежутка : 40 мс. (1,00 видеокадр)
Заголовок : Audio Stream
Библиотека кодирования : LAME3.92
-----------------------------------------------------------------------------------------------------
Общее
Полное имя : bolshaya_peremena_1972_.dvdrip_restavraciya._seriya.4[pirat.ca].avi
Формат : AVI
Формат/Информация : Audio Video Interleave
Размер файла : 1,07 Гбайт
Продолжительность : 1 ч. 3 м.
Общий поток : 2402 Кбит/сек
Видео
Идентификатор : 0
Формат : MPEG-4 Visual
Параметр BVOP формата : 1
Параметр QPel формата : Нет
Параметр GMC формата : Без точки перехода
Параметр матрицы формата : Default (H.263)
Режим смешивания : Сжатый битовый поток
Идентификатор кодека : DX50
Идентификатор кодека/Подсказка : DivX 5
Продолжительность : 1 ч. 3 м.
Битрейт : 2264 Кбит/сек
Ширина : 720 пикселей
Высота : 576 пикселей
Соотношение сторон : 5:4
Частота кадров : 25,000 кадров/сек
Стандарт вещания : PAL
Цветовое пространство : YUV
Субдискретизация насыщенности : 4:2:0
Битовая глубина : 8 бит
Тип развёртки : Прогрессивная
Метод сжатия : С потерями
Бит/(Пиксели*Кадры) : 0.218
Размер потока : 1,00 Гбайт (94%)
Библиотека кодирования : DivX 5.2.1 (WaffleDay) (UTC 2004-09-08)
Аудио
Идентификатор : 1
Формат : MPEG Audio
Версия формата : Version 1
Профиль формата : Layer 3
Идентификатор кодека : 55
Идентификатор кодека/Подсказка : MP3
Продолжительность : 1 ч. 3 м.
Вид битрейта : Постоянный
Битрейт : 128 Кбит/сек
Каналы : 2 канала
Частота : 44,1 КГц
Метод сжатия : С потерями
Задержка видео : 26 мс.
Размер потока : 58,2 Мбайт (5%)
Выравнивание : Разделение по промежуткам
Продолжительность промежутка : 40 мс. (1,00 видеокадр)
Заголовок : Audio Stream



Download / Скачать

Хотите скачать бесплатно? Зарегистрируйтесь на сайте (ссылка на регистрацию). Pirat.ca - самый быстрый торрент трекер в рунете!

Как скачивать  ·   Что такое торрент  ·   Рейтинг и ограничения



Последний раз редактировалось: megamastor (2012-03-27 06:28), всего редактировалось 9 раз(а)

Пост 01-Дек-2011 06:27 (спустя 4 дня)

Топик был перенесен из форума Наше Кино в форум Золотая коллекция

Skinwalker
 

RIIDDIK

Шкипер

84

Пост 11-Фев-2012 12:09 (спустя 2 месяца 14 дней)

[Q] 

[Профиль]  [ЛС] 

abc7

Гроза морей

464

Пост 11-Фев-2012 23:26 (спустя 11 часов)

[Q] 

Спасибо!!
[Профиль]  [ЛС] 

megamastor ®

2827

Пост 25-Фев-2012 09:56 (спустя 13 дней)

[Q] 

На раздаче 24/7, С с 2:00 до 10:00 мск скорость выше
[Профиль]  [ЛС] 

ksg111ban

Гроза морей

Пост 04-Мар-2012 18:07 (спустя 8 дней)

[Q] 

Школьные годы чудесные................

_________________
[Профиль]  [ЛС] 

UncleFather

Легенда

Пост 24-Мар-2013 20:14 (спустя 1 год)

[Q] 


_________________
Одни боялись Пью, другие - Билли Бонса, а меня... меня боялся сам Флинт
[Профиль]  [ЛС] 

ment

Шкипер

Пост 31-Янв-2014 17:54 (спустя 10 месяцев 6 дней)

[Q] 

Супер! Спасибо!!! класс
[Профиль]  [ЛС] 

alex denver71

Флибустьер

Пост 05-Янв-2015 12:06 (спустя 11 месяцев 4 дня)

[Q] 

Автору респект!!! Стыдно признаться что к 40 годам,только недавно посмотрел этот замечательный фильм. Фильм просто улет!!! Мне понравилось
[Профиль]  [ЛС] 

R_O_Z_A

Морской Волк

Пост 26-Фев-2015 23:06 (спустя 1 месяц 21 день)

[Q] 

Спасибо!!! Лови бочку
[Профиль]  [ЛС] 
Показать сообщения:    
Ответить на тему

Текущее время: Сегодня 10:07

Часовой пояс: GMT + 4



Вы не можете начинать темы
Вы не можете отвечать на сообщения
Вы не можете редактировать свои сообщения
Вы не можете удалять свои сообщения
Вы не можете голосовать в опросах
Вы не можете прикреплять файлы к сообщениям
Вы не можете скачивать файлы

▼ Вниз