ML
     
  Уважаемый Гость!
Вы можете поддержать проект и зарегистрироваться у наших партнеров - онлайн-стратегия MyLands. При регистрации в игре Вы получите код, который сможете активировать после регистрации на pirat.ca и получить 1000 дублонов.

Ваш код:
e6008d9811a0b6a1393c3dc51ecd7bc35637bc21
 
     

Чародеи (Константин Бромберг) [1982 г., мюзикл, фантастика, мелодрама, комедия, DVDRip]

Ответить на тему
 
Автор
Сообщение

Пост 26-Ноя-2011 16:32

[Q] 

kufre

Корсар

Чародеи
Год выпуска: 1982
Жанр: мюзикл, фантастика, мелодрама, комедия
Продолжительность: 02:40:00
Режиссер: Константин Бромберг
В ролях: Александра Яковлева, Александр Абдулов, Екатерина Васильева, Валентин Гафт, Семен Фарада, Валерий Золотухин, Эммануил Виторган, Михаил Светин, Роман Филиппов, Анна Ашимова
Описание: Новогодняя сказка о том, что настоящая любовь может творить чудеса. В институте «НУИНУ» (научный универсальный институт необыкновенных услуг) кипит бурная работа по изготовлению волшебной палочки. Презентация изобретения намечена на 31 декабря, в Новогодний вечер. Но тут в дело вступают противники директора института, преследующие свои цели…
2 серии
Внутренние помещения НУИНУ снимали в здании телецентра Останкино. Режиссёр фильма Константин Бромберг однажды заблудился в нём и забрёл в часть здания, где обнаружил восьмипролётную мраморную лестницу с мозаикой и смальтой, о которой, как потом выяснил, все забыли. Внешний вид здания НУИНУ — московская гостиница «Союз». Банкетный зал, где происходила финальная часть фильма — суздальский гостинично-туристический комплекс «Турцентр» Дом, где жила Алёна, снимали в городе Пущино.
В фильме есть эпизод — когда Алёна летает на метле, она облетела здание «НУИНУ», и его показали снаружи. Выглядит это здание как гостиница «Союз» с двухскатной крышей , однако в реальности гостиница «Союз» двухскатной крыши не имеет . Была выполнена комбинированная съёмка: взяли здание гостиницы «Союз», и наверх «затащили» здание ГТК «Турцентр». Гибрид получился весьма удачным.
В Суздале снимался эпизод, как Иван проходит через стены. Съёмочная группа ожидала звёздной ночи. По воспоминаниям Семёна Фарады, когда началась съёмка, над съёмочной группой завис настоящий НЛО. Пока оператор Апрятин разворачивал стационарную камеру объективом вверх, объект исчез.
В эпизоде, когда А. М. Сатанеев восседает верхом на «коне», в кадре видна Луна за сутки до первой четверти. По сюжету это вечер 31 декабря. Фильм снимался в 1982 году и как раз именно вечером 31 декабря 1981 года Луна была за 1,5 суток до первой четверти. Ближайшая такая дата — 31 декабря 1973 года.
Семён Фарада вспоминает, что его роль задумывалась как эпизодическая — гость с юга с четырьмя фразами. Но актёр сам придумал себе роль. Например, выдумал появление следов, когда его герой потерялся в лабиринтах коридора. Прямо в кадре выдал фразу: «Боже, как я похудел». Фразу, ставшую крылатой, «Ну кто так строит?!» предложил Семён Фарада после того, как однажды реально заблудился в телецентре и не мог найти съёмочную группу.
Идея белого костюма, в котором щеголял Александр Абдулов («Главное, чтобы костюмчик сидел!»), заимствована из фильма «Лихорадка субботнего вечера». В этом фильме в таком же костюме танцевал главный герой в исполнении Джона Траволты.
Э. Виторган, М. Светин и А. Абдулов свои песни в фильме поют сами (за исключением «Серенады» «…Ей хватит, одной интонации хватит, чтоб пламя до неба разжечь!..», которую исполнил за кадром певец Леонид Серебренников). А вот за Александру Яковлеву (Алёна Санина), Екатерину Васильеву (Кира Шемаханская) и Аню Ашимову (девочка Нина Пухова) пели Ирина Отиева, Жанна Рождественская, Ольга Рождественская и Лариса Долина. На пластинке фирмы «Мелодия» с песнями из фильма «Чародеи» музыкальные номера записаны в том варианте, как они звучат в фильме, за исключением песни «Представь себе» — она записана в исполнении Л. Серебренникова (в фильме поет А. Абдулов).
Георгий Вицин озвучил говорящего кота Василия. Однако в итоговом монтаже почти вся роль кота была вырезана, остались всего два слова: «Хам!» и «Ура!». Вицин был ужасно расстроен.
Формат : AVI
Формат/Информация : Audio Video Interleave
Размер файла : 1,37 Гбайт
Продолжительность : 1 ч. 10 м.
Общий поток : 2784 Кбит/сек
Программа кодирования : VirtualDubMod 1.5.4.1 (build 2178/release)
Библиотека кодирования : VirtualDubMod build 2178/release
Видео
Идентификатор : 0
Формат : MPEG-4 Visual
Параметр BVOP формата : 1
Параметр QPel формата : Нет
Параметр GMC формата : Без точки перехода
Параметр матрицы формата : Default (H.263)
Режим смешивания : Сжатый битовый поток
Идентификатор кодека : DX50
Идентификатор кодека/Подсказка : DivX 5
Продолжительность : 1 ч. 10 м.
Битрейт : 2329 Кбит/сек
Ширина : 720 пикс.
Высота : 544 пикс.
Соотношение сторон : 4:3
Частота кадров : 25,000 кадр/сек
Цветовое пространство : YUV
Подвыборка цветности : 4:2:0
Битовая глубина : 8 бит
Тип развёртки : Прогрессивная
Метод сжатия : С потерями
Бит/(Пиксели*Кадры) : 0.238
Размер потока : 1,14 Гбайт (84%)
Библиотека кодирования : DivX 5.2.1 (WaffleDay) (UTC 2004-09-08)
Аудио
Идентификатор : 1
Формат : AC-3
Формат/Информация : Audio Coding 3
Расширение режима : CM (complete main)
Идентификатор кодека : 2000
Продолжительность : 1 ч. 10 м.
Вид битрейта : Постоянный
Битрейт : 448 Кбит/сек
Каналы : 6 каналов
Расположение каналов : Front: L C R, Side: L R, LFE
Частота : 48,0 КГц
Битовая глубина : 16 бит
Метод сжатия : С потерями
Размер потока : 225 Мбайт (16%)
Выравнивание : Разделение по промежуткам
Продолжительность промежутка : 96 мс. (2,40 видеокадра)
Время предзагрузки промежутка : 96 ms
Общее
Полное имя : I:\ШАРА\ВИДЕО\ФИЛЬМЫ\НАШЕ\Чародеи.1982\2серия.avi
Формат : AVI
Формат/Информация : Audio Video Interleave
Размер файла : 1,37 Гбайт
Продолжительность : 1 ч. 16 м.
Общий поток : 2569 Кбит/сек
Программа кодирования : VirtualDubMod 1.5.4.1 (build 2178/release)
Библиотека кодирования : VirtualDubMod build 2178/release
Видео
Идентификатор : 0
Формат : MPEG-4 Visual
Параметр BVOP формата : 1
Параметр QPel формата : Нет
Параметр GMC формата : Без точки перехода
Параметр матрицы формата : Default (H.263)
Режим смешивания : Сжатый битовый поток
Идентификатор кодека : DX50
Идентификатор кодека/Подсказка : DivX 5
Продолжительность : 1 ч. 16 м.
Битрейт : 2114 Кбит/сек
Ширина : 720 пикс.
Высота : 544 пикс.
Соотношение сторон : 4:3
Частота кадров : 25,000 кадр/сек
Цветовое пространство : YUV
Подвыборка цветности : 4:2:0
Битовая глубина : 8 бит
Тип развёртки : Прогрессивная
Метод сжатия : С потерями
Бит/(Пиксели*Кадры) : 0.216
Размер потока : 1,13 Гбайт (82%)
Библиотека кодирования : DivX 5.2.1 (WaffleDay) (UTC 2004-09-08)
Аудио
Идентификатор : 1
Формат : AC-3
Формат/Информация : Audio Coding 3
Расширение режима : CM (complete main)
Идентификатор кодека : 2000
Продолжительность : 1 ч. 16 м.
Вид битрейта : Постоянный
Битрейт : 448 Кбит/сек
Каналы : 6 каналов
Расположение каналов : Front: L C R, Side: L R, LFE
Частота : 48,0 КГц
Битовая глубина : 16 бит
Метод сжатия : С потерями
Размер потока : 244 Мбайт (17%)
Выравнивание : Разделение по промежуткам
Продолжительность промежутка : 96 мс. (2,40 видеокадра)
Время предзагрузки промежутка : 96 ms
Источник/Качество: DVDRip
Формат: AVI
Видео кодек: DivX
Аудио кодек: AC3
Видео: 720x544 (1.32:1), 25 fps, DivX Codec 5.2.1 build 1328 ~2329 kbps avg, 0.24 bit/pixel
Аудио: 48 kHz, AC3 Dolby Digital, 3/2 (L,C,R,l,r) + LFE ch, ~448 kbps







Download / Скачать

Хотите скачать бесплатно? Зарегистрируйтесь на сайте (ссылка на регистрацию). Pirat.ca - самый быстрый торрент трекер в рунете!

Как скачивать  ·   Что такое торрент  ·   Рейтинг и ограничения

Пост 26-Ноя-2011 16:45 (спустя 12 минут)

Топик был перенесен из форума Наше Кино в форум Золотая коллекция

Skinwalker
 

Luzhok

Легенда

Пост 27-Ноя-2011 11:09 (спустя 18 часов)

[Q] 

благодарю
[Профиль]  [ЛС] 

gnom_ik

Корсар

Пост 24-Дек-2011 21:02 (спустя 27 дней)

[Q] 

спасибо!!! Боялся что не найду....
[Профиль]  [ЛС] 

RIIDDIK

Шкипер

84

Пост 11-Фев-2012 12:01 (спустя 1 месяц 17 дней)

[Q] 

[Профиль]  [ЛС] 

abc7

Гроза морей

464

Пост 12-Фев-2012 12:37 (спустя 1 день)

[Q] 

Спасибо!!
[Профиль]  [ЛС] 

CHARLI2236

1097

Пост 31-Май-2012 15:36 (спустя 3 месяца 19 дней)

[Q] 

благодарю

_________________
[Профиль]  [ЛС] 

eea25

Лоцман

Пост 10-Сен-2012 23:10 (спустя 3 месяца 10 дней)

[Q] 

Вот сижу и думаю ... удасться ли до конца эту раздачу докачать? уже неделю не могу последние 3 процента осилить :( .
Модераторы , не подскажете ? стоит ли надеяться ?
[Профиль]  [ЛС] 

eea25

Лоцман

Пост 14-Сен-2012 17:25 (спустя 3 дня)

[Q] 

Спасибо, наконец то докачал до 100 процентов .
[Профиль]  [ЛС] 

alex denver71

Флибустьер

Пост 31-Дек-2014 08:18 (спустя 2 года 3 месяца)

[Q] 

Автору респект!!! Великолепный Новогодний фильм!!!!!!!!!!!Смотреть ВСЕМ!!!!!!!!! С Наступающим!!!!!!! cy
[Профиль]  [ЛС] 
Показать сообщения:    
Ответить на тему

Текущее время: Сегодня 02:03

Часовой пояс: GMT + 4



Вы не можете начинать темы
Вы не можете отвечать на сообщения
Вы не можете редактировать свои сообщения
Вы не можете удалять свои сообщения
Вы не можете голосовать в опросах
Вы не можете прикреплять файлы к сообщениям
Вы не можете скачивать файлы

▼ Вниз