ML
     
  Уважаемый Гость!
Вы можете поддержать проект и зарегистрироваться у наших партнеров - онлайн-стратегия MyLands. При регистрации в игре Вы получите код, который сможете активировать после регистрации на pirat.ca и получить 1000 дублонов.

Ваш код:
c3360d664ceb84802c84b88ed062a5d134e2ba97
 
     

Неуловимые мстители Трилогия (Александр Зельдович) [1967-1971 г., боевик, приключения, вестерн, DVDRip-AVC]

Ответить на тему
 
Автор
Сообщение

Пост 28-Ноя-2011 13:43

[Q] 

zyyx

Неуловимые мстители Трилогия
--Неуловимые мстители-- Год выпуска: 1967
Мировая премьера: 29 апреля 1967
Дата выхода DVD: 1 апреля 2011, «Парадиз Видео»
Страна: СССР
Жанр: боевик, приключения, вестерн
Продолжительность: 01:13:50
Перевод: Не требуется
Режиссер: Эдмонд Кеосаян
В ролях: Василий Васильев, Виктор Косых, Валентина Курдюкова, Михаил Метелкин, Борис Сичкин, Владимир Белокуров, Надежда Федосова, Виктор Колпаков, Иван Жеваго, Александра Денисова, Лев Свердлин, Савелий Крамаров, Глеб Стриженов, Инна Чурикова, Павел Винник, Ефим Копелян, Владимир Трещалов, Геннадий Юхтин, Иван Савкин, Валентина Ананьина, Альбина Матвеева, Юрий Мартынов, Николай Горлов, Александр Милютин, Олег Савосин, Виктор Уральский, Леонид Пархоменко, Александр Пархоменко, Юрий Киреев, Владимир Протасенко
Описание: Бывший гимназист Валерка, веселый отчаянный Яшка-цыган, оставшиеся сиротами Данька и его сестренка Ксанка дали клятву внедриться в отряд к атаману Бурнашу и отомстить ему и его банде за смерть отца Даньки. Под видом сына старого друга атамана Данька проникает в отряд Бурнаша. Однако бандиты сумели узнать об этом. Даньку ждет казнь, но друзья на то и друзья, чтобы не бросить своего товарища в беде.-КиноПоиск-Источник/Качество: DVDRip-AVC
Формат: MKV
Видео кодек: H264
Аудио кодек: AC3
Видео: 704x312 (2.25:1), 25 fps, H264 ~2100 kbps avg
Аудио: 48 kHz, AC3 Dolby Digital, 3/2 (L,C,R,l,r) + LFE ch, 448 kbps
Аудио #2: 48 kHz, AC3 Dolby Digital, 1/0 (C), ~128.00 kbps avg (отдельно)
Общее
Уникальный идентификатор : 244531112690111273146725942350388337593 (0xB7F6FAAE952FAE948F3D99DCB0F71BB9)
Полное имя : C:\pirat.ca\Neulovimye.mstiteli.Trilogiya.1966-1971.DVDRip-AVC.H264.AC3.-Zarraza\Neulovimye.mstiteli.1966.DVDRip-AVC.H264.AC3.-Zarraza.mkv
Формат : Matroska
Версия формата : Version 2
Размер файла : 1,24 Гбайт
Продолжительность : 1 ч. 13 м.
Общий поток : 2408 Кбит/сек
Дата кодирования : UTC 2011-10-15 19:24:27
Программа кодирования : mkvmerge v3.4.0 ('Rapunzel') сборка от May 15 2010 09:38:20
Библиотека кодирования : libebml v0.8.0 + libmatroska v0.9.0
Видео
Идентификатор : 1
Формат : AVC
Формат/Информация : Advanced Video Codec
Профиль формата : [email protected]
Параметр CABAC формата : Да
Параметр ReFrames формата : 6 кадров
Параметр GOP формата : N=1
Идентификатор кодека : V_MPEG4/ISO/AVC
Продолжительность : 1 ч. 13 м.
Битрейт : 2100 Кбит/сек
Ширина : 704 пикселя
Высота : 312 пикселей
Соотношение сторон : 2,25:1
Частота кадров : 25,000 кадров/сек
Цветовое пространство : YUV
Субдискретизация насыщенности : 4:2:0
Битовая глубина : 8 бит
Тип развёртки : Прогрессивная
Бит/(Пиксели*Кадры) : 0.382
Размер потока : 1,05 Гбайт (85%)
Библиотека кодирования : x264 core 75 r1251kMod e553a4c
Настройки программы : cabac=1 / ref=6 / deblock=1:-1:-1 / analyse=0x3:0x133 / me=umh / subme=7 / psy=1 / psy_rd=1.0:0.0 / mixed_ref=1 / me_range=16 / chroma_me=1 / trellis=2 / 8x8dct=1 / cqm=0 / deadzone=21,11 / chroma_qp_offset=-2 / threads=12 / nr=0 / decimate=1 / mbaff=0 / bframes=3 / b_pyramid=0 / b_adapt=2 / b_bias=0 / direct=1 / wpredb=1 / keyint=250 / keyint_min=25 / scenecut=40 / rc_lookahead=40 / rc=abr / mbtree=1 / bitrate=2100 / ratetol=1.0 / qcomp=0.60 / qpmin=10 / qpmax=51 / qpstep=4 / ip_ratio=1.40 / aq=1:1.00
Аудио
Идентификатор : 2
Формат : AC-3
Формат/Информация : Audio Coding 3
Расширение режима : CM (complete main)
Идентификатор кодека : A_AC3
Продолжительность : 1 ч. 13 м.
Вид битрейта : Постоянный
Битрейт : 320 Кбит/сек
Каналы : 6 каналов
Расположение каналов : Front: L C R, Side: L R, LFE
Частота : 48,0 КГц
Битовая глубина : 16 бит
Метод сжатия : С потерями
Размер потока : 169 Мбайт (13%)


--Новые приключения неуловимых-- Год выпуска: 1968
Мировая премьера: 11 декабря 1968
Страна: СССР
Жанр: боевик, приключения
Продолжительность: 01:17:44
Перевод: Не требуется
Режиссер: Эдмонд Кеосаян
В ролях: Виктор Косых, Михаил Метелкин, Василий Васильев, Армен Джигарханян, Ефим Копелян, Борис Сичкин, Валентина Курдюкова, Юрий Мартынов, Николай Федорцов, Владимир Белокуров, Эдуард Абалов, Ян Френкель, Алексей Бахарь, Владимир Ивашов, Константин Сорокин, Людмила Карауш, Иван Переверзев, Иван Савкин, Аркадий Толбузин, Светлана Светличная, Савелий Крамаров, Сергей Филиппов, Станислав Чекан, Евгений Весник
Описание: Крым накануне полного освобождения от белогвардейцев. Возвращаясь из дозора, четверка отважных «неуловимых» подбивает аэроплан. В полевой сумке взятого в плен летчика они обнаруживают секретное донесение, где говорится о существовании оборонительных укреплений вокруг приморского города, который красным еще предстоит взять. Юные герои получают задание добыть карту укреплений и едут в город…-КиноПоиск-Источник/Качество: DVDRip-AVC
Формат: MKV
Видео кодек: H264
Аудио кодек: AC3
Видео: 704x312 (2.25:1), 25 fps, H264 ~2100 kbps avg
Аудио: 48 kHz, AC3 Dolby Digital, 3/2 (L,C,R,l,r) + LFE ch, 448 kbps
Аудио #2: 48 kHz, AC3 Dolby Digital, 1/0 (C), ~128.00 kbps avg (отдельно)
Общее
Уникальный идентификатор : 170158832615694045901031905243170904940 (0x8003662BA835E7BEB0DE945A60C09B6C)
Полное имя : C:\pirat.ca\Neulovimye.mstiteli.Trilogiya.1966-1971.DVDRip-AVC.H264.AC3.-Zarraza\Novye.priklyucheniya.neulovimyh.1968.DVDRip-AVC.H264.AC3.-Zarraza.mkv
Формат : Matroska
Версия формата : Version 2
Размер файла : 1,31 Гбайт
Продолжительность : 1 ч. 17 м.
Общий поток : 2413 Кбит/сек
Дата кодирования : UTC 2011-10-15 19:26:12
Программа кодирования : mkvmerge v3.4.0 ('Rapunzel') сборка от May 15 2010 09:38:20
Библиотека кодирования : libebml v0.8.0 + libmatroska v0.9.0
Видео
Идентификатор : 1
Формат : AVC
Формат/Информация : Advanced Video Codec
Профиль формата : [email protected]
Параметр CABAC формата : Да
Параметр ReFrames формата : 6 кадров
Параметр GOP формата : N=1
Идентификатор кодека : V_MPEG4/ISO/AVC
Продолжительность : 1 ч. 17 м.
Битрейт : 2100 Кбит/сек
Ширина : 704 пикселя
Высота : 312 пикселей
Соотношение сторон : 2,25:1
Частота кадров : 25,000 кадров/сек
Цветовое пространство : YUV
Субдискретизация насыщенности : 4:2:0
Битовая глубина : 8 бит
Тип развёртки : Прогрессивная
Бит/(Пиксели*Кадры) : 0.382
Размер потока : 1,11 Гбайт (85%)
Библиотека кодирования : x264 core 75 r1251kMod e553a4c
Настройки программы : cabac=1 / ref=6 / deblock=1:-1:-1 / analyse=0x3:0x133 / me=umh / subme=7 / psy=1 / psy_rd=1.0:0.0 / mixed_ref=1 / me_range=16 / chroma_me=1 / trellis=2 / 8x8dct=1 / cqm=0 / deadzone=21,11 / chroma_qp_offset=-2 / threads=12 / nr=0 / decimate=1 / mbaff=0 / bframes=3 / b_pyramid=0 / b_adapt=2 / b_bias=0 / direct=1 / wpredb=1 / keyint=250 / keyint_min=25 / scenecut=40 / rc_lookahead=40 / rc=abr / mbtree=1 / bitrate=2100 / ratetol=1.0 / qcomp=0.60 / qpmin=10 / qpmax=51 / qpstep=4 / ip_ratio=1.40 / aq=1:1.00
Аудио
Идентификатор : 2
Формат : AC-3
Формат/Информация : Audio Coding 3
Расширение режима : CM (complete main)
Идентификатор кодека : A_AC3
Продолжительность : 1 ч. 17 м.
Вид битрейта : Постоянный
Битрейт : 320 Кбит/сек
Каналы : 6 каналов
Расположение каналов : Front: L C R, Side: L R, LFE
Частота : 48,0 КГц
Битовая глубина : 16 бит
Метод сжатия : С потерями
Размер потока : 178 Мбайт (13%)


--Корона Российской империи, или Снова неуловимые-- Год выпуска: 1971
Мировая премьера: 14 декабря 1971
Дата выхода DVD: 9 октября 2008, «Lizard Cinema Trade»
Страна: СССР
Жанр: боевик, приключения, история
Продолжительность: 01:03:42 + 01:05:37
Перевод: Не требуется
Режиссер: Эдмонд Кеосаян
В ролях: Армен Джигарханян, Михаил Метелкин, Виктор Косых, Василий Васильев, Валентина Курдюкова, Владислав Стржельчик, Юрий Мартынов, Владимир Белокуров, Эдмонд Кеосаян, Ян Френкель, Яков Беленький, Ефим Копелян, Николай Граббе, Лаврентий Масоха, Лариса Пашкова, Артем Карапетян, Лев Поляков, Станислав Чекан, Зоя Исаева, Данута Столярская, Вадим Гусев, Ролан Быков, Людмила Гурченко, Нина Агапова, Иван Переверзев, Аркадий Толбузин, Владимир Ивашов, Андрей Файт, Георгий Тусузов, Григорий Шпигель, Олег Савосин, Яков Ленц, Зинаида Занони, Ираклий Хизанишвили
Описание: Кончилась гражданская война. Четвёрка неуловимых мстителей, ставших чекистами, получает новое задание: охранять музейные ценности, в том числе и Большую императорскую корону. А между тем именно ею мечтают короноваться авантюристы, которые ведут в Париже борьбу за престол несуществующей Российской империи…-КиноПоиск-Источник/Качество: DVDRip-AVC
Формат: MKV
Видео кодек: H264
Аудио кодек: AC3
Видео: 704x312 (2.25:1), 25 fps, H264 ~2100 kbps avg
Аудио: 48 kHz, AC3 Dolby Digital, 3/2 (L,C,R,l,r) + LFE ch, ~320.00 kbps avg
Аудио #2: 48 kHz, AC3 Dolby Digital, 1/0 (C), ~128.00 kbps avg (отдельно)
часть 1
Общее
Уникальный идентификатор : 220959609866019742104516723465211327992 (0xA63B45DDB2F43A418E2963E44667B5F8)
Полное имя : C:\pirat.ca\Neulovimye.mstiteli.Trilogiya.1966-1971.DVDRip-AVC.H264.AC3.-Zarraza\Korona.Rossijskoj.imperii.ili.Snova.neulovimye.Part1.1971.DVDRip-AVC.H264.AC3.-Zarraza.mkv
Формат : Matroska
Версия формата : Version 2
Размер файла : 1,08 Гбайт
Продолжительность : 1 ч. 3 м.
Общий поток : 2420 Кбит/сек
Дата кодирования : UTC 2011-10-15 19:29:10
Программа кодирования : mkvmerge v3.4.0 ('Rapunzel') сборка от May 15 2010 09:38:20
Библиотека кодирования : libebml v0.8.0 + libmatroska v0.9.0
Видео
Идентификатор : 1
Формат : AVC
Формат/Информация : Advanced Video Codec
Профиль формата : [email protected]
Параметр CABAC формата : Да
Параметр ReFrames формата : 6 кадров
Параметр GOP формата : N=1
Идентификатор кодека : V_MPEG4/ISO/AVC
Продолжительность : 1 ч. 3 м.
Битрейт : 2100 Кбит/сек
Ширина : 704 пикселя
Высота : 312 пикселей
Соотношение сторон : 2,25:1
Частота кадров : 25,000 кадров/сек
Цветовое пространство : YUV
Субдискретизация насыщенности : 4:2:0
Битовая глубина : 8 бит
Тип развёртки : Прогрессивная
Бит/(Пиксели*Кадры) : 0.382
Размер потока : 935 Мбайт (85%)
Библиотека кодирования : x264 core 75 r1251kMod e553a4c
Настройки программы : cabac=1 / ref=6 / deblock=1:-1:-1 / analyse=0x3:0x133 / me=umh / subme=7 / psy=1 / psy_rd=1.0:0.0 / mixed_ref=1 / me_range=16 / chroma_me=1 / trellis=2 / 8x8dct=1 / cqm=0 / deadzone=21,11 / chroma_qp_offset=-2 / threads=12 / nr=0 / decimate=1 / mbaff=0 / bframes=3 / b_pyramid=0 / b_adapt=2 / b_bias=0 / direct=1 / wpredb=1 / keyint=250 / keyint_min=25 / scenecut=40 / rc_lookahead=40 / rc=abr / mbtree=1 / bitrate=2100 / ratetol=1.0 / qcomp=0.60 / qpmin=10 / qpmax=51 / qpstep=4 / ip_ratio=1.40 / aq=1:1.00
Аудио
Идентификатор : 2
Формат : AC-3
Формат/Информация : Audio Coding 3
Расширение режима : CM (complete main)
Идентификатор кодека : A_AC3
Продолжительность : 1 ч. 3 м.
Вид битрейта : Постоянный
Битрейт : 320 Кбит/сек
Каналы : 6 каналов
Расположение каналов : Front: L C R, Side: L R, LFE
Частота : 48,0 КГц
Битовая глубина : 16 бит
Метод сжатия : С потерями
Размер потока : 146 Мбайт (13%)
часть 2
Общее
Уникальный идентификатор : 247222386523341176785932979453022260037 (0xB9FD4CB9FAAEBA7E91096C11D4C54B45)
Полное имя : C:\pirat.ca\Neulovimye.mstiteli.Trilogiya.1966-1971.DVDRip-AVC.H264.AC3.-Zarraza\Korona.Rossijskoj.imperii.ili.Snova.neulovimye.Part2.1971.DVDRip-AVC.H264.AC3.-Zarraza.mkv
Формат : Matroska
Версия формата : Version 2
Размер файла : 1,11 Гбайт
Продолжительность : 1 ч. 5 м.
Общий поток : 2430 Кбит/сек
Дата кодирования : UTC 2011-10-15 19:39:49
Программа кодирования : mkvmerge v3.4.0 ('Rapunzel') сборка от May 15 2010 09:38:20
Библиотека кодирования : libebml v0.8.0 + libmatroska v0.9.0
Видео
Идентификатор : 1
Формат : AVC
Формат/Информация : Advanced Video Codec
Профиль формата : [email protected]
Параметр CABAC формата : Да
Параметр ReFrames формата : 6 кадров
Параметр GOP формата : N=1
Идентификатор кодека : V_MPEG4/ISO/AVC
Продолжительность : 1 ч. 5 м.
Битрейт : 2100 Кбит/сек
Ширина : 704 пикселя
Высота : 312 пикселей
Соотношение сторон : 2,25:1
Частота кадров : 25,000 кадров/сек
Цветовое пространство : YUV
Субдискретизация насыщенности : 4:2:0
Битовая глубина : 8 бит
Тип развёртки : Прогрессивная
Бит/(Пиксели*Кадры) : 0.382
Размер потока : 968 Мбайт (85%)
Библиотека кодирования : x264 core 75 r1251kMod e553a4c
Настройки программы : cabac=1 / ref=6 / deblock=1:-1:-1 / analyse=0x3:0x133 / me=umh / subme=7 / psy=1 / psy_rd=1.0:0.0 / mixed_ref=1 / me_range=16 / chroma_me=1 / trellis=2 / 8x8dct=1 / cqm=0 / deadzone=21,11 / chroma_qp_offset=-2 / threads=12 / nr=0 / decimate=1 / mbaff=0 / bframes=3 / b_pyramid=0 / b_adapt=2 / b_bias=0 / direct=1 / wpredb=1 / keyint=250 / keyint_min=25 / scenecut=40 / rc_lookahead=40 / rc=abr / mbtree=1 / bitrate=2100 / ratetol=1.0 / qcomp=0.60 / qpmin=10 / qpmax=51 / qpstep=4 / ip_ratio=1.40 / aq=1:1.00
Аудио
Идентификатор : 2
Формат : AC-3
Формат/Информация : Audio Coding 3
Расширение режима : CM (complete main)
Идентификатор кодека : A_AC3
Продолжительность : 1 ч. 5 м.
Вид битрейта : Постоянный
Битрейт : 320 Кбит/сек
Каналы : 6 каналов
Расположение каналов : Front: L C R, Side: L R, LFE
Частота : 48,0 КГц
Битовая глубина : 16 бит
Метод сжатия : С потерями
Размер потока : 150 Мбайт (13%)


Download / Скачать

Хотите скачать бесплатно? Зарегистрируйтесь на сайте (ссылка на регистрацию). Pirat.ca - самый быстрый торрент трекер в рунете!

Как скачивать  ·   Что такое торрент  ·   Рейтинг и ограничения

Пост 28-Ноя-2011 18:16 (спустя 4 часа)

Топик был перенесен из форума Наше Кино в форум Золотая коллекция

Skinwalker
 

CHARLI2236

1098

Пост 28-Ноя-2011 22:21 (спустя 8 часов)

[Q] 

спасибо

_________________
[Профиль]  [ЛС] 

Pesok

Гроза морей

Пост 15-Янв-2012 11:17 (спустя 1 месяц 16 дней)

[Q] 

огромное спасибо! этого фильма у меня как раз не было еще в видеотеке старых супер фильмов(уже переваливает за 2ТБ - пора покупать новый 3тб(или больше) внешний носитель), еще раз спасибо!

_________________
[Профиль]  [ЛС] 

dimkoba

35106

Пост 18-Янв-2012 23:07 (спустя 3 дня)

[Q] 

спс

_________________
[Профиль]  [ЛС] 

abc7

Гроза морей

464

Пост 11-Фев-2012 00:44 (спустя 23 дня)

[Q] 

[Профиль]  [ЛС] 

megamastor

2827

Пост 04-Мар-2012 00:32 (спустя 21 день)

[Q] 

Больщое
[Профиль]  [ЛС] 

megamastor

2827

Пост 04-Мар-2012 00:33 (спустя 1 минута)

[Q] 

А вот про вестерн это
[Профиль]  [ЛС] 

VaNo192

Корсар

Пост 31-Мар-2012 02:31 (спустя 27 дней)

[Q] 

В школе на него с классом в кино ходили! Эх...
[Профиль]  [ЛС] 

Pesok

Гроза морей

Пост 16-Ноя-2012 08:08 (спустя 7 месяцев 16 дней)

[Q] 


_________________
[Профиль]  [ЛС] 

MaXoR

Флибустьер

1475

Пост 19-Фев-2013 22:19 (спустя 3 месяца 3 дня)

[Q] 

Спасибо автору за релиз. Качаю!

_________________
Живы будем - не помрем!
[Профиль]  [ЛС] 

Рамзик

Лоцман

Пост 05-Июн-2013 13:12 (спустя 3 месяца 13 дней)

[Q] 

СПАСИБО
[Профиль]  [ЛС] 

dogovor

Морской Волк

Пост 19-Янв-2015 21:57 (спустя 1 год 7 месяцев)

[Q] 

Одобрямс!
[Профиль]  [ЛС] 

DragonMoscow

Штурман

Пост 15-Фев-2015 16:50 (спустя 26 дней)

[Q] 

Сколько раз смотрел, а до сих пор не надоедает. Умели ведь снимать раньше.
[Профиль]  [ЛС] 

kucha11

Корсар

Пост 29-Ноя-2015 01:26 (спустя 9 месяцев 13 дней)

[Q] 

Эй, вернитесь на раздачу...
[Профиль]  [ЛС] 

cybersash

Морской Волк

Пост 16-Мар-2016 10:21 (спустя 3 месяца 17 дней)

[Q] 

Сейчас таким наивным кажется Спасибо!!!
[Профиль]  [ЛС] 

nitro1985

Корсар

Пост 14-Ноя-2016 17:08 (спустя 7 месяцев 29 дней)

[Q] 

согласен по поводу вестерна Ну ты юморист...
[Профиль]  [ЛС] 

k73

Штурман

Пост 29-Ноя-2016 18:54 (спустя 15 дней)

[Q] 

Спасибо за золото.
[Профиль]  [ЛС] 
Показать сообщения:    
Ответить на тему

Текущее время: Сегодня 10:07

Часовой пояс: GMT + 4



Вы не можете начинать темы
Вы не можете отвечать на сообщения
Вы не можете редактировать свои сообщения
Вы не можете удалять свои сообщения
Вы не можете голосовать в опросах
Вы не можете прикреплять файлы к сообщениям
Вы не можете скачивать файлы

▼ Вниз