ML
     
  Уважаемый Гость!
Вы можете поддержать проект и зарегистрироваться у наших партнеров - онлайн-стратегия MyLands. При регистрации в игре Вы получите код, который сможете активировать после регистрации на pirat.ca и получить 1000 дублонов.

Ваш код:
9cfe162481db953a6549f32179d7b3900b8b8643
 
     

Вокзал для двоих (Эльдар Рязанов) [1982 г., Мелодрама, DVDRip]

Ответить на тему
 
Автор
Сообщение

Пост 02-Дек-2011 13:57

[Q] 

avzaytsev

Морской Волк

Вокзал для двоих [Эльдар Рязанов] (1982)
Год выпуска: 1982
Страна: СССР
Жанр: Мелодрама
Продолжительность: 02:12:39
Режиссер: Эльдар Рязанов
В ролях: Людмила Гурченко, Олег Басилашвили, Никита Михалков,Нонна Мордюкова, Михаил Кононов, Анастасия Вознесенская, Александр Ширвиндт,Татьяна Догилева, Ольга Волкова, Раиса Этуш, Тимур Юнусов, Анатолий Скорякин,Станислав Садальский, Алла Будницкая
Описание: Они оба уже не так молоды, и у каждого есть своя история жизни. Но случайная встреча на железнодорожном вокзале меняет их жизнь навсегда. Официантка Вера привокзального кафе понимает, что это тот мужчина с которым она хочет быть. А он столичный пианист Платон осознает,что у него совсем нерадостные перспективы на будущее, и не может ей ничего обещать. Они проводят вместе всего пару дней, но потом остаются навсегда на долгие годы. Вера будет ждать его из мест лишения свободы с надеждой на новую счастливую жизнь!
Доп. информация: Раздаю преимущественно в будни с 20:00 до 23:00, в выходные - по мере возможности
Источник/Качество: DVDRip
Формат: AVI
Видео кодек: XviD
Аудио кодек: MP3
Видео: 768x576 (1.33:1), 25 fps, XviD build 46 ~1112 kbps avg, 0.10 bit/pixel
Аудио: 48 kHz, MPEG Layer 3, 2 ch, ~192.00 kbps avg
Общее
Полное имя : Вокзал для двоих.avi
Формат : AVI
Формат/Информация : Audio Video Interleave
Размер файла : 1,39 Гбайт
Продолжительность : 2 ч. 12 м.
Общий поток : 1503 Кбит/сек
Видео
Идентификатор : 0
Формат : MPEG-4 Visual
Профиль формата : Advanced [email protected]
Параметр BVOP формата : Нет
Параметр QPel формата : Нет
Параметр GMC формата : Без точки перехода
Параметр матрицы формата : Default (H.263)
Идентификатор кодека : XVID
Идентификатор кодека/Подсказка : XviD
Продолжительность : 2 ч. 12 м.
Битрейт : 1304 Кбит/сек
Ширина : 768 пикселей
Высота : 576 пикселей
Соотношение сторон : 4:3
Частота кадров : 25,000 кадров/сек
Цветовое пространство : YUV
Субдискретизация насыщенности : 4:2:0
Битовая глубина : 8 бит
Тип развёртки : Прогрессивная
Метод сжатия : С потерями
Бит/(Пиксели*Кадры) : 0.118
Размер потока : 1,21 Гбайт (87%)
Библиотека кодирования : XviD 1.1.2 (UTC 2006-11-01)
Аудио
Идентификатор : 1
Формат : MPEG Audio
Версия формата : Version 1
Профиль формата : Layer 3
Идентификатор кодека : 55
Идентификатор кодека/Подсказка : MP3
Продолжительность : 2 ч. 12 м.
Вид битрейта : Постоянный
Битрейт : 192 Кбит/сек
Каналы : 2 канала
Частота : 48,0 КГц
Метод сжатия : С потерями
Размер потока : 182 Мбайт (13%)
Выравнивание : Соединение по промежуткам
Продолжительность промежутка : 80 мс. (2,00 видеокадра)
Библиотека кодирования : LAMELAME_MAJOR_VERSI



Download / Скачать

Хотите скачать бесплатно? Зарегистрируйтесь на сайте (ссылка на регистрацию). Pirat.ca - самый быстрый торрент трекер в рунете!

Как скачивать  ·   Что такое торрент  ·   Рейтинг и ограничения

Пост 02-Дек-2011 20:56 (спустя 6 часов)

Топик был перенесен из форума Наше Кино в форум Золотая коллекция

Skinwalker
 

Pesok

Гроза морей

Пост 15-Янв-2012 11:13 (спустя 1 месяц 12 дней)

[Q] 

огромное спасибо! этого фильма у меня как раз не было еще в видеотеке старых супер фильмов(уже переваливает за 2ТБ - пора покупать новый 3тб(или больше) внешний носитель), еще раз спасибо!

_________________
[Профиль]  [ЛС] 

dimkoba

35104

Пост 18-Янв-2012 23:09 (спустя 3 дня)

[Q] 

смотрю на михалкова в этом фильме и думаю что он и впрям на самом деле такой

_________________
[Профиль]  [ЛС] 

RIIDDIK

Шкипер

84

Пост 10-Фев-2012 19:06 (спустя 22 дня)

[Q] 

[Профиль]  [ЛС] 

ksg111ban

Гроза морей

Пост 04-Мар-2012 18:07 (спустя 22 дня)

[Q] 


_________________
[Профиль]  [ЛС] 

Pesok

Гроза морей

Пост 16-Ноя-2012 08:06 (спустя 8 месяцев 11 дней)

[Q] 


_________________
[Профиль]  [ЛС] 

Oxionka

Юнга

Пост 07-Апр-2013 13:14 (спустя 4 месяца 21 день)

[Q] 

скорости вобще нет =_=
[Профиль]  [ЛС] 

UncleFather

Легенда

Пост 26-Янв-2014 07:20 (спустя 9 месяцев 18 дней)

[Q] 

Фильм отличный. Странно, что мало раз скачан

_________________
Одни боялись Пью, другие - Билли Бонса, а меня... меня боялся сам Флинт
[Профиль]  [ЛС] 

ment

Шкипер

Пост 30-Янв-2014 15:06 (спустя 4 дня)

[Q] 

да классный фильм спасибо
[Профиль]  [ЛС] 

Alex Yz

Гроза морей

Пост 05-Дек-2014 23:58 (спустя 10 месяцев 6 дней)

[Q] 

Спасибо за раздачу!
[Профиль]  [ЛС] 
Показать сообщения:    
Ответить на тему

Текущее время: Сегодня 06:04

Часовой пояс: GMT + 4



Вы не можете начинать темы
Вы не можете отвечать на сообщения
Вы не можете редактировать свои сообщения
Вы не можете удалять свои сообщения
Вы не можете голосовать в опросах
Вы не можете прикреплять файлы к сообщениям
Вы не можете скачивать файлы

▼ Вниз