ML
     
  Уважаемый Гость!
Вы можете поддержать проект и зарегистрироваться у наших партнеров - онлайн-стратегия MyLands. При регистрации в игре Вы получите код, который сможете активировать после регистрации на pirat.ca и получить 1000 дублонов.

Ваш код:
73640f24f8a0f579e128ea7346fd2db2b1009143
 
     

Весна на Заречной улице (В цвете) (Марлен Хуциев, Феликс Миронер) [1956 г., Мелодрама, SATRip]

Ответить на тему
 
Автор
Сообщение

Пост 28-Мар-2012 15:45

[Q] 

leha1975

Гроза морей

Весна на Заречной улице (В цвете)
Год выпуска: 1956
Жанр: Мелодрама
Продолжительность: 1:30:00
Режиссер: Марлен Хуциев, Феликс Миронер
В ролях: Нина Иванова, Николай Рыбников, Владимир Гуляев, Валентина Пугачева, Геннадий Юхтин, Римма Шорохова, Николай Ключнев, Марина Гаврилко, Юрий Белов, Валентин Брылеев

Описание: История зарождения любви между молодой учительницей школы рабочей молодежи и ее "трудным" учеником, лучшим сталеваром завода,- одна из самых популярных мелодрам в отечественном кино.
Mediainfo
F:\pirat.ca\ðàçäà÷è-2\Âåñíà íà çàðå÷íîé óëèöå.avi
General
Complete name : F:\pirat.ca\ðàçäà÷è-2\Âåñíà íà çàðå÷íîé óëèöå.avi
Format : AVI
Format/Info : Audio Video Interleave
File size : 1.38 GiB
Duration : 1h 30mn
Overall bit rate : 2 201 Kbps
Writing application : VirtualDubMod 1.5.10.3 | www.virtualdub-fr.org || (build 2550/release)
Writing library : VirtualDubMod build 2550/release
Video #0
ID : 0
Format : MPEG-4 Visual
Format profile : Advanced [email protected]
Format settings, BVOP : Yes
Format settings, QPel : No
Format settings, GMC : No warppoints
Format settings, Matrix : Default (MPEG)
Codec ID : XVID
Codec ID/Hint : XviD
Duration : 1h 30mn
Bit rate : 2 000 Kbps
Width : 704 pixels
Height : 528 pixels
Display aspect ratio : 4:3
Frame rate : 25.000 fps
Resolution : 8 bits
Colorimetry : 4:2:0
Scan type : Progressive
Bits/(Pixel*Frame) : 0.215
Stream size : 1.26 GiB (91%)
Writing library : XviD 1.2.1 (UTC 2008-12-04)
Audio #1
ID : 1
Format : AC-3
Format/Info : Audio Coding 3
Format_Settings_ModeExtension : CM (complete main)
Codec ID : 2000
Duration : 1h 30mn
Bit rate mode : Constant
Bit rate : 192 Kbps
Channel(s) : 2 channels
Channel positions : Front: L R
Sampling rate : 48.0 KHz
Stream size : 124 MiB (9%)
Alignment : Split accross interleaves
Interleave, duration : 40 ms (1.00 video frame)
Interleave, preload duration : 500 ms
Источник/Качество: SATRip
Формат: AVI
Видео кодек: XviD
Аудио кодек: AC3
Видео: 704x528 (1.33:1) 25 fps XviD build 50 1999 kbps avg 0.22 bit/pixel
Аудио: 48 kHz AC3 Dolby Digital 2/0 (L,R) ch 192.00 kbps avg
Download / Скачать

Хотите скачать бесплатно? Зарегистрируйтесь на сайте (ссылка на регистрацию). Pirat.ca - самый быстрый торрент трекер в рунете!

Как скачивать  ·   Что такое торрент  ·   Рейтинг и ограничения

Пост 28-Мар-2012 16:45 (спустя 59 минут)

Топик был перенесен из форума Наше Кино в форум Золотая коллекция

Linnan
 

jumpersky

Легенда

Пост 28-Мар-2012 21:31 (спустя 5 часов)

[Q] 

На форуме  [Профиль]  [ЛС] 

Faustello

Шкипер

Пост 04-Янв-2014 01:06 (спустя 1 год 9 месяцев)

[Q] 

Спасибо! посмотрим, как оно в цвете...
[Профиль]  [ЛС] 

alex denver71

Флибустьер

Пост 20-Дек-2014 11:37 (спустя 11 месяцев 16 дней)

[Q] 

Автору респект!!! Смотреть однозначно!!!Фильм действительно достоин золотой коллекции и золотой раздачи!!! Качают ВСЕ!!!
[Профиль]  [ЛС] 

R_O_Z_A

Морской Волк

Пост 25-Фев-2015 23:37 (спустя 2 месяца 5 дней)

[Q] 

Cпасибо, классика. Супер!
[Профиль]  [ЛС] 

cergo

Гроза морей

20034

Пост 09-Мар-2015 21:36 (спустя 11 дней)

[Q] 

благодарствую релизеру. az
[Профиль]  [ЛС] 
Показать сообщения:    
Ответить на тему

Текущее время: Сегодня 22:34

Часовой пояс: GMT + 4



Вы не можете начинать темы
Вы не можете отвечать на сообщения
Вы не можете редактировать свои сообщения
Вы не можете удалять свои сообщения
Вы не можете голосовать в опросах
Вы не можете прикреплять файлы к сообщениям
Вы не можете скачивать файлы

▼ Вниз