ML
     
  Уважаемый Гость!
Вы можете поддержать проект и зарегистрироваться у наших партнеров - онлайн-стратегия MyLands. При регистрации в игре Вы получите код, который сможете активировать после регистрации на pirat.ca и получить 1000 дублонов.

Ваш код:
193c38d0130f05c24de871678ea3ac181461757d
 
     

Собака на сене (Ян Фрид) [1977 г., мюзикл, комедия, DVDRip]

Ответить на тему
 
Автор
Сообщение

Пост 29-Мар-2012 11:48

[Q] 

kufre

Корсар

Собака на сене
Год выпуска: 1977
Жанр: мюзикл, комедия
Продолжительность: 01:04:56+01:03:47
Режиссер: Ян Фрид
В ролях: Маргарита Терехова, Михаил Боярский, Армен Джигарханян, Елена Проклова, Зинаида Шарко, Виктор Ильичев, Игорь Дмитриев, Николай Караченцов, Гелена Ивлиева, Алексей Кожевников,Эрнст Романов
Описание: Богатая и знатная сеньора Диана терзается сомнениями: ей нужно выбрать между достойными ее руки женихами и личным секретарем — красавцем и ловеласом. А тот, в свою очередь, не может решить, кто ему больше по сердцу — его обворожительная хозяйка или ее прелестная служанка…
Доп. информация: В сцене, где Диана бьёт веером Теодоро так, что у того из носа идёт кровь, кровь настоящая. Терехова ударила Боярского (который сам попросил сделать сцену понатуральнее) с такой силой, что у него действительно пошла кровь.
Натурные съёмки фильма проводились в Крыму в Ливадийском дворце и его парке
2 серии
Автор сценария и режиссёр-постановщик — Ян Фрид
Главный оператор — Евгений Шапиро
Композитор — Геннадий Гладков
Звукооператор — Геннадий Корховой
Главный художник — Семён Малкин
Художник по костюмам — Татьяна Острогорская
Режиссёры — Владимир Перов, Эрнест Ясан
Операторы — В. Марков, А. Карелин
Монтаж — Стэры Гораковой
Редактор — Х. Элкен
Балетмейстер — Святослав Кузнецов
Текст песен — Михаила Донского
Консультанты — З. Плавскин, К. Куракина, К. Чернозёмов
Грим — В. Горюнова, Т. Воробьёвой, И. Грошевой
Ассистенты:
режиссёра — Н. Шевелёва
оператора — Д. Манучарян
художника — Р. Варшавская
Художник-декоратор — Т. Полянская
Мастер по свету — Н. Лебедев
Административная группа — С. Лебединов, Д. Смирнов, К. Варшавский
Оркестр Ленинградского Академического Малого театра оперы и балета
Дирижёр — Юрий Богданов
Директор картины — Григорий Прусовский
«…-Пока хотела я любила, а захочу и разлюблю!»
Лично для меня нет более любимого фильма чем «Собака на сене». Когда я посмотрела его в первый раз, в возрасте 6 лет, я поняла какова великая сила любви и сколько преград на ее пути!.. В детстве мне хотелось, чтоб этот фильм пересняли в Голливуде, с зарубежными актерами, НО сейчас… Я понимаю, никто и никогда не экранизирует эту историю Лопе Де Вега! Год назад я первый раз прочла книгу, после этого в течении этого самого года, читала ее не менее 20 раз. Знаю все эту пьесу наизусть, без преувеличения.
Любовь к этому фильму началась с песен. Каждая из них очень близка, я думаю, любому человеку. Каждый услышат в них, что-то своё.
О актерах я даже говорить ничего не буду… они гениальны — все! И главное каждый на своем месте. Хотя признаюсь, читая пьесу Диану представляла немного иной. В моем представлении она была похожа на фигуристку Екатерину Гордееву. Но смотря фильм, сразу понимаешь, Терихова — это настоящая графиня Де Бельфлёр.
Лучше Боярского никто и никогда не смог бы сыграл эту роль!.. Один голос чего стоит, не говоря уже про его неповторимый типаж.
Много мыслей и чувств испытываю к этому фильму, даже не могу их выразить словами.
Кстати сейчас пишу эти строки смотря это фильм.
Все мои знакомые знают, что ели по телевизору идет этот фильм, то на это время я потерянный для общества человек!
В общем, жаль что можно поставить только 10 балов, «Собака на сене» заслуживает несуществующих 100 балов!
10 из 10
По-моему, этот фильм стал одним из лучших советских фильмов. По крайней мере, я этот фильм очень люблю и смотрю его обязательно, если его показывают по телевидению. Само название «Собака на сене» — это крылатое выражение, которое как нельзя лучше подошло фильму.
В ленте задействованы Михаил Боярский и Маргарита Терехова, которых я люблю ещё с тех пор, когда посмотрела мушкетёров. А как же хорош Армен Джигарханян! Этот его озорной взгляд. Как замечательно его герой провернул всю историю, заварил такую кашу! БРАВО. Также обязана отметить Николая Караченцева и Игоря Дмитриева, которые сыграли отвергнутых женихов.
Я уже в который раз убеждаюсь, какие же у нас в России великие артисты. Я этим несказанно горжусь…
Формат : AVI
Формат/Информация : Audio Video Interleave
Размер файла : 1,37 Гбайт
Продолжительность : 1 ч. 4 м.
Общий поток : 3015 Кбит/сек
Программа кодирования : VirtualDubMod 1.5.4.1 (build 2178/release)
Библиотека кодирования : VirtualDubMod build 2178/release
Видео
Идентификатор : 0
Формат : MPEG-4 Visual
Параметр BVOP формата : 1
Параметр QPel формата : Нет
Параметр GMC формата : Без точки перехода
Параметр матрицы формата : Default (H.263)
Режим смешивания : Сжатый битовый поток
Идентификатор кодека : DX50
Идентификатор кодека/Подсказка : DivX 5
Продолжительность : 1 ч. 4 м.
Битрейт : 2561 Кбит/сек
Ширина : 720 пикс.
Высота : 544 пикс.
Соотношение сторон : 4:3
Частота кадров : 25,000 кадр/сек
Цветовое пространство : YUV
Подвыборка цветности : 4:2:0
Битовая глубина : 8 бит
Тип развёртки : Прогрессивная
Метод сжатия : С потерями
Бит/(Пиксели*Кадры) : 0.261
Размер потока : 1,16 Гбайт (85%)
Библиотека кодирования : DivX 5.2.1 (WaffleDay) (UTC 2004-09-08)
Аудио
Идентификатор : 1
Формат : AC-3
Формат/Информация : Audio Coding 3
Расширение режима : CM (complete main)
Идентификатор кодека : 2000
Продолжительность : 1 ч. 4 м.
Вид битрейта : Постоянный
Битрейт : 448 Кбит/сек
Каналы : 6 каналов
Расположение каналов : Front: L C R, Side: L R, LFE
Частота : 48,0 КГц
Битовая глубина : 16 бит
Метод сжатия : С потерями
Задержка видео : 291 мс.
Размер потока : 208 Мбайт (15%)
Выравнивание : Разделение по промежуткам
Продолжительность промежутка : 96 мс. (2,40 видеокадра)
Время предзагрузки промежутка : 96 ms
Общее
Полное имя : H:\ШАРА\ВИДЕО\ФИЛЬМЫ\Н А Ш Е\Собака на сене (1977)\Собака на сене (1977) 2 серия.avi
Формат : AVI
Формат/Информация : Audio Video Interleave
Размер файла : 1,37 Гбайт
Продолжительность : 1 ч. 3 м.
Общий поток : 3070 Кбит/сек
Программа кодирования : VirtualDubMod 1.5.4.1 (build 2178/release)
Библиотека кодирования : VirtualDubMod build 2178/release
Видео
Идентификатор : 0
Формат : MPEG-4 Visual
Параметр BVOP формата : 1
Параметр QPel формата : Нет
Параметр GMC формата : Без точки перехода
Параметр матрицы формата : Default (H.263)
Режим смешивания : Сжатый битовый поток
Идентификатор кодека : DX50
Идентификатор кодека/Подсказка : DivX 5
Продолжительность : 1 ч. 3 м.
Битрейт : 2615 Кбит/сек
Ширина : 720 пикс.
Высота : 544 пикс.
Соотношение сторон : 4:3
Частота кадров : 25,000 кадр/сек
Цветовое пространство : YUV
Подвыборка цветности : 4:2:0
Битовая глубина : 8 бит
Тип развёртки : Прогрессивная
Метод сжатия : С потерями
Бит/(Пиксели*Кадры) : 0.267
Размер потока : 1,17 Гбайт (85%)
Библиотека кодирования : DivX 5.2.1 (WaffleDay) (UTC 2004-09-08)
Аудио
Идентификатор : 1
Формат : AC-3
Формат/Информация : Audio Coding 3
Расширение режима : CM (complete main)
Идентификатор кодека : 2000
Продолжительность : 1 ч. 3 м.
Вид битрейта : Постоянный
Битрейт : 448 Кбит/сек
Каналы : 6 каналов
Расположение каналов : Front: L C R, Side: L R, LFE
Частота : 48,0 КГц
Битовая глубина : 16 бит
Метод сжатия : С потерями
Задержка видео : 226 мс.
Размер потока : 204 Мбайт (15%)
Выравнивание : Разделение по промежуткам
Продолжительность промежутка : 96 мс. (2,40 видеокадра)
Время предзагрузки промежутка : 96 ms
Источник/Качество: DVDRip
Формат: AVI
Видео кодек: DivX
Аудио кодек: AC3
Видео 1 серия: 720x544 (1.32:1), 25 fps, DivX Codec 5.2.1 build 1328 ~2560 kbps avg, 0.26 bit/pixel
Аудио 1 серия: 48 kHz, AC3 Dolby Digital, 3/2 (L,C,R,l,r) + LFE ch, ~448 kbps
Видео 2 серия: 720x544 (1.32:1), 25 fps, DivX Codec 5.2.1 build 1328 ~2615 kbps avg, 0.27 bit/pixel
Аудио 2 серия: 48 kHz, AC3 Dolby Digital, 3/2 (L,C,R,l,r) + LFE ch, ~448 kbps
Download / Скачать

Хотите скачать бесплатно? Зарегистрируйтесь на сайте (ссылка на регистрацию). Pirat.ca - самый быстрый торрент трекер в рунете!

Как скачивать  ·   Что такое торрент  ·   Рейтинг и ограничения

Пост 29-Мар-2012 12:38 (спустя 49 минут)

Топик был перенесен из форума Наше Кино в форум Советское кино

Linnan
 

jumpersky

Легенда

Пост 29-Мар-2012 14:05 (спустя 2 часа 17 минут)

[Q] 

[Профиль]  [ЛС] 

sandman1973

Гроза морей

2129

Пост 29-Мар-2012 16:28 (спустя 2 часа 22 минуты)

[Q] 


_________________

[Профиль]  [ЛС] 

abc7

Гроза морей

464

Пост 27-Апр-2012 01:04 (спустя 28 дней)

[Q] 

[Профиль]  [ЛС] 

CHARLI2236

1092

Пост 31-Май-2012 15:27 (спустя 1 месяц 4 дня)

[Q] 

благодарю

_________________
[Профиль]  [ЛС] 

Сухофрукт

Гроза морей

270

Пост 19-Июл-2012 21:24 (спустя 1 месяц 19 дней)

[Q] 

Большое спасибо!
[Профиль]  [ЛС] 

catsfamily

Штурман

Пост 20-Июл-2012 23:34 (спустя 1 день 2 часа)

[Q] 

тупо спасибо. Классика.
[Профиль]  [ЛС] 
Показать сообщения:    
Ответить на тему

Текущее время: Сегодня 18:07

Часовой пояс: GMT + 4



Вы не можете начинать темы
Вы не можете отвечать на сообщения
Вы не можете редактировать свои сообщения
Вы не можете удалять свои сообщения
Вы не можете голосовать в опросах
Вы не можете прикреплять файлы к сообщениям
Вы не можете скачивать файлы

▼ Вниз