ML
     
  Уважаемый Гость!
Вы можете поддержать проект и зарегистрироваться у наших партнеров - онлайн-стратегия MyLands. При регистрации в игре Вы получите код, который сможете активировать после регистрации на pirat.ca и получить 1000 дублонов.

Ваш код:
6f9ab67d502902cc72a06c406977ddb589b7f39d
 
     

В бой идут одни старики (чёрно-белый) (Леонид Быков) [1973г., СССР, драма, комедия, военный, DVDRip]

Ответить на тему
 
Автор
Сообщение

Пост 30-Мар-2012 12:35

[Q] 

Андря

В бой идут одни старики (чёрно-белый)

Год выхода: 1973
Жанр: драма, комедия, военный
Производство: СССР
Продолжительность: 01:27:01
Мировая премьера: 1 сентября 1974
Релиз на Blu-Ray: 28 апреля 2011, «Новый Диск»
Релиз на DVD: 19 февраля 2009, «Мьюзик-Трейд»
Режиссер: Леонид Быков
В ролях: Леонид Быков, Сергей Подгорный, Рустам Сагдуллаев, Виктор Мирошниченко,
Евгения Симонова, Ольга Матешко, Владимир Талашко, Алексей Смирнов, Григорий Гладий, Сергей Иванов
Эта эскадрилья стала «поющей» — так капитан Титаренко подбирал себе новичков. Его «старикам» было не больше двадцати, но «желторотиков», пополнение из летных училищ ускоренного выпуска, в бой все равно, по возможности, не пускали.
Им еще многое предстояло испытать — и жар боев, и радость первой победы над врагом, и величие братства, скрепленного кровью, и первую любовь, и горечь утраты… И настанет день, когда по команде «в бой идут одни старики» бывшие желторотики бросятся к своим
Качество: DVDRip
Формат: AVI
Видео кодек: XVID
Аудио кодек: АС3
Видео: XviD, 2043 Кбит/сек, 720х536, 4:3, 25,000 кадров/сек, 8 бит, 0.212 Бит/Пиксел
Аудио: AC-3, 192 Кбит/сек, 2 канала, Front: L R, 48,0 КГц, 16 бит
Общее
Полное имя : В бой идут одни старики (чёрно-белый).avi
Формат : AVI
Формат/Информация : Audio Video Interleave
Размер файла : 1,36 Гбайт
Продолжительность : 1 ч. 27 м.
Общий поток : 2244 Кбит/сек
Программа кодирования : VirtualDubMod 1.5.10.2 (build 2540/release)
Библиотека кодирования : VirtualDubMod build 2540/release
Видео
Идентификатор : 0
Формат : MPEG-4 Visual
Профиль формата : Advanced [email protected]
Параметр BVOP формата : 3
Параметр QPel формата : Да
Параметр GMC формата : 3 точки перехода
Параметр матрицы формата : Default (H.263)
Идентификатор кодека : XVID
Идентификатор кодека/Подсказка : XviD
Продолжительность : 1 ч. 27 м.
Битрейт : 2043 Кбит/сек
Ширина : 720 пикселей
Высота : 536 пикселей
Соотношение сторон : 4:3
Частота кадров : 25,000 кадров/сек
Цветовое пространство : YUV
Субдискретизация насыщенности : 4:2:0
Битовая глубина : 8 бит
Тип развёртки : Прогрессивная
Метод сжатия : С потерями
Бит/(Пиксели*Кадры) : 0.212
Размер потока : 1,24 Гбайт (91%)
Библиотека кодирования : XviD 1.2.0.dev47 (UTC 2006-11-01)
Аудио
Идентификатор : 1
Формат : AC-3
Формат/Информация : Audio Coding 3
Расширение режима : CM (complete main)
Идентификатор кодека : 2000
Продолжительность : 1 ч. 26 м.
Вид битрейта : Постоянный
Битрейт : 192 Кбит/сек
Каналы : 2 канала
Расположение каналов : Front: L R
Частота : 48,0 КГц
Битовая глубина : 16 бит
Метод сжатия : С потерями
Размер потока : 119 Мбайт (9%)
Выравнивание : Разделение по промежуткам
Продолжительность промежутка : 40 мс. (1,00 видеокадр)
Время предзагрузки промежутка : 500 мс.





Download / Скачать

Хотите скачать бесплатно? Зарегистрируйтесь на сайте (ссылка на регистрацию). Pirat.ca - самый быстрый торрент трекер в рунете!

Как скачивать  ·   Что такое торрент  ·   Рейтинг и ограничения



Последний раз редактировалось: Андря (2012-03-30 12:57), всего редактировалось 2 раз(а)

Пост 30-Мар-2012 12:52 (спустя 17 минут)

Топик был перенесен из форума Наше Кино в форум Золотая коллекция

Linnan
 

jumpersky

Легенда

Пост 30-Мар-2012 13:27 (спустя 52 минуты)

[Q] 

[Профиль]  [ЛС] 

Sakoru

Корсар

Пост 29-Окт-2013 20:28 (спустя 1 год 6 месяцев)

[Q] 

Фильм отменный!

_________________
[Профиль]  [ЛС] 

tubuc

Корсар

103

Пост 09-Янв-2015 20:46 (спустя 1 год 2 месяца)

[Q] 

Спасибо за фильм Вы лучшие!
[Профиль]  [ЛС] 

R_O_Z_A

Морской Волк

Пост 25-Фев-2015 23:29 (спустя 1 месяц 16 дней)

[Q] 

Спасибо за фильм Лови бочку
[Профиль]  [ЛС] 
Показать сообщения:    
Ответить на тему

Текущее время: Сегодня 16:33

Часовой пояс: GMT + 4



Вы не можете начинать темы
Вы не можете отвечать на сообщения
Вы не можете редактировать свои сообщения
Вы не можете удалять свои сообщения
Вы не можете голосовать в опросах
Вы не можете прикреплять файлы к сообщениям
Вы не можете скачивать файлы

▼ Вниз