ML
     
  Уважаемый Гость!
Вы можете поддержать проект и зарегистрироваться у наших партнеров - онлайн-стратегия MyLands. При регистрации в игре Вы получите код, который сможете активировать после регистрации на pirat.ca и получить 1000 дублонов.

Ваш код:
73640f24f8a0f579e128ea7346fd2db2b1009143
 
     

Кавказская пленница, или новые приключения Шурика (Леонид Гайдай) [1967 г., Мелодрама, комедия, приключения, семейный, музыка, BDRip]

Ответить на тему
 
Автор
Сообщение

Пост 04-Дек-2011 21:03

[Q] 

mersicc

Корсар

Кавказская пленница, или новые приключения Шурика- -Год выпуска: 1967
Жанр: Мелодрама, комедия, приключения, семейный, музыка
Продолжительность: 01:19:53-Режиссер: Леонид Гайдай-В ролях: Александр Демьяненко, Наталья Варлей, Руслан Ахметов, Юрий Никулин, Георгий Вицин, Евгений Моргунов, Владимир Этуш, Фрунзик Мкртчян, Нина Гребешкова, Михаил Глузский-Описание: Отправившись в одну из горных республик собирать фольклор, герой фильма Шурик влюбляется в симпатичную девушку - «спортсменку, отличницу, и просто красавицу». Но ее неожиданно похищают, чтобы насильно выдать замуж.
Наивный Шурик не сразу смог сообразить, что творится у него под носом, - однако затем отважно ринулся освобождать «кавказскую пленницу»...
-Источник/Качество: BDRip
Формат: AVI
Видео кодек: XviD
Аудио кодек: AC3
Видео: 704x512 (1.38:1), 23.976 fps, XviD build 62 ~2218 kbps; 0.26 bit/pixel/pixel
Аудио: 48 kHz, AC3 Dolby Digital, 3/2 (L,C,R,l,r) + LFE ch, ~448 kbps
Видео
Идентификатор : 0
Формат : MPEG-4 Visual
Профиль формата : Advanced [email protected]
Параметр BVOP формата : 1
Параметр QPel формата : Нет
Параметр GMC формата : Без точки перехода
Параметр матрицы формата : Выборочная
Идентификатор кодека : XVID
Идентификатор кодека/Подсказка : XviD
Продолжительность : 1 ч. 19 м.
Битрейт : 2218 Кбит/сек
Ширина : 704 пикс.
Высота : 512 пикс.
Соотношение сторон : 1,375
Частота кадров : 23,976 кадр/сек
Цветовое пространство : YUV
Подвыборка цветности : 4:2:0
Битовая глубина : 8 бит
Тип развёртки : Прогрессивная
Метод сжатия : С потерями
Бит/(Пиксели*Кадры) : 0.257
Размер потока : 1,24 Гбайт (85%)
Библиотека кодирования : XviD 63
Аудио
Идентификатор : 1
Формат : AC-3
Формат/Информация : Audio Coding 3
Расширение режима : CM (complete main)
Идентификатор кодека : 2000
Продолжительность : 1 ч. 19 м.
Вид битрейта : Постоянный
Битрейт : 384 Кбит/сек
Каналы : 6 каналов
Расположение каналов : Front: L C R, Side: L R, LFE
Частота : 48,0 КГц
Битовая глубина : 16 бит
Метод сжатия : С потерями
Размер потока : 219 Мбайт (15%)
Выравнивание : Разделение по промежуткам
Продолжительность промежутка : 42 мс. (1,00 видеокадр)
Время предзагрузки промежутка : 500 мс.










Download / Скачать

Хотите скачать бесплатно? Зарегистрируйтесь на сайте (ссылка на регистрацию). Pirat.ca - самый быстрый торрент трекер в рунете!

Как скачивать  ·   Что такое торрент  ·   Рейтинг и ограничения

Пост 05-Дек-2011 10:20 (спустя 13 часов)

Топик был перенесен из форума Наше Кино в форум Золотая коллекция

Skinwalker
 

CHARLI2236

1089

Пост 13-Дек-2011 13:54 (спустя 8 дней)

[Q] 

спасибо

_________________
[Профиль]  [ЛС] 

RIIDDIK

Шкипер

84

Пост 11-Фев-2012 12:09 (спустя 1 месяц 28 дней)

[Q] 

[Профиль]  [ЛС] 

VaNo192

Корсар

Пост 25-Мар-2012 01:27 (спустя 1 месяц 13 дней)

[Q] 

[Профиль]  [ЛС] 

paratun

Лоцман

Пост 30-Мар-2012 12:56 (спустя 5 дней)

[Q] 

спасибо.
[Профиль]  [ЛС] 

alexsoid

Шкипер

Пост 05-Дек-2012 17:21 (спустя 8 месяцев 6 дней)

[Q] 

[Профиль]  [ЛС] 

mersicc ®

Корсар

1614

Пост 11-Ноя-2013 20:31 (спустя 11 месяцев 6 дней)

[Q] 

Што-то мало народу.. на треке и такой фильм не качают.. bw

_________________
[Профиль]  [ЛС] 

alex denver71

Флибустьер

Пост 19-Авг-2014 18:44 (спустя 9 месяцев 7 дней)

[Q] 

Автору респект!!! Да такое золото должно быть точно в ЗОЛОТОЙ КОЛЛЕКЦИИ!!! ay
[Профиль]  [ЛС] 

Alexe10

Гроза морей

36

Пост 23-Окт-2014 07:50 (спустя 2 месяца 3 дня)

[Q] 

Всем качать!!! Супер!
[Профиль]  [ЛС] 
Показать сообщения:    
Ответить на тему

Текущее время: Сегодня 22:38

Часовой пояс: GMT + 4



Вы не можете начинать темы
Вы не можете отвечать на сообщения
Вы не можете редактировать свои сообщения
Вы не можете удалять свои сообщения
Вы не можете голосовать в опросах
Вы не можете прикреплять файлы к сообщениям
Вы не можете скачивать файлы

▼ Вниз