ML
     
  Уважаемый Гость!
Вы можете поддержать проект и зарегистрироваться у наших партнеров - онлайн-стратегия MyLands. При регистрации в игре Вы получите код, который сможете активировать после регистрации на pirat.ca и получить 1000 дублонов.

Ваш код:
193c38d0130f05c24de871678ea3ac181461757d
 
     

Робин из Шервуда / Robin of Sherwood (Сезоны: 1,2,3 / Серии: 1-26) (Ричард Карпентер / Richard Carpenter, Роберт Янг / Robert Young, Иэн Шарп / Ian Sharp) [1984 г., фэнтези, приключения, DVDRip] MVO (Ольга Пархоменко)

Ответить на тему
 
Автор
Сообщение

Пост 02-Июл-2012 17:14

[Q] 

sandman1973

Гроза морей

Робин из Шервуда / Robin of Sherwood
(Сезон: 1,2,3 / Серии: 1-26)
Год выпуска: 1984
Мировая премьера: 28 апреля 1984 года
Российская премьера: 17 июля 1985
Производство: Англия
Жанр: фэнтези, приключения
Продолжительность серии: 00:50:00
Перевод: Профессиональный (многоголосый, закадровый) [Ольга Пархоменко]
Режиссер: Ричард Карпентер/Richard Carpenter, Роберт Янг/Robert Young, Иэн Шарп/Ian Sharp
В ролях
Майкл Прайд (Робин Локсли),Джейсон Коннери (Jason Connery) - Роберт Хантингтон, Джуди Тротт (Judi Trott) - Леди Мерион, Роберт Эдди (Robert Addie) - Сэр Гай Гисборн, Николас Грейс (Nickolas Grace) - Шериф Нотингема Роберт де Рено, Филип Джексон (Philip Jackson) - Аббат Хьюго де Рено, Рей Уинстон (Ray Winstone) - Уил Скарлет, Клив Мантл (Clive Mantle) - Малыш Джон, Питер Ливелайн Уильямс (Peter Llewellyn Williams) - Мач, Фил Роуз (Phil Rose) - Отец Тук, Марк Райн (Mark Ryan) - Насир, Джон Абенери (John Abineri) - Хёрн Охотник и другие...
Описание
Телесериал, созданный по мотивам английских легенд о знаменитом разбойнике из Шервудского леса, с добавлением мистики и волшебства. Содержание сериала делится на две части.
В первой (первый и второй сезоны) - сын убитого захватчиками-норманнами саксонского воина, крестьянский парень Робин из Локсли (Майкл Прайд) волею судеб оказывается на пути могущественного колдуна барона де Бэлема (Энтони Валентайн). Спасая от него леди Мэрион Лифорд (Джудит Тротт), Робин собирает ватагу изгоев - бывшего солдата Уилла Скарлетта (Рэй Уинстоун), здоровяка-пастуха Малютку Джона (Клайв Мантлл), веселого монаха Тука (Фил Роуз), простодушного сына мельника Мача (Питер Ллелевин-Уильямс) и бывшего слугу де Бэлема, сарацина Назира (Марк Райан). Так начинаются приключения «великолепной семерки». В триннадцати сериях им предстоят многочисленные битвы за справедливость под покровительством Хэрна, языческого духа леса. Их постоянные противники: алчный шериф Ноттингемский Роберт де Рено (Николас Грэйс), его правая рука, жестокий сэр Гай Гизборн (Роберт Эдди), а также целый сонм разнообразных злодеев.
Сериал представляет собой любопытную смесь из псевдореалистических подробностей жизни Англии XIII века и разнообразного волшебства. Эта «сборная солянка» сопровождается завораживающей, стилизованной под средневековую, музыкой ирландской группы Clanned. В конце первой части «черный» (по цвету волос) Робин Гуд, в исполнении мужественного красавца-брюнета Майкла Прайда, гибнет, спасая друзей от солдат шерифа.
По мнению многих зрителей, этот сериал, снятый в подлинных замках, лесах и полях Англии и Уэльса, производит гораздо большее впечатление, чем бездумные американские поделки типа «Зены» или «Геракла».
Во второй части (третий сезон) действует «белый» Робин Гуд (не менее обаятельный блондин Джейсон Коннери, кстати сын легендарного Шона).
Вновь Хэрн призывает человека, который должен противостоять Злу. Им оказывается сын графа Роберт Хандтингтон (реальный прототип Робина Гуда - английский лорд, живший в начале XIII века, который, спасаясь от врагов, ушел в леса и несколько лет вел там «герилью»; затем был прощен королем, на старости лет постригся в монахи и умер в очень преклонном возрасте).
Во второй части сериала магия эпизодична, а сюжет лишается мистического ореола, становясь чисто приключенческим.
Музыка к фильму написана группой Clannad, и без этой музыки сериал потерял бы очень много. Гармоничное сочетание изображения и звука создает эффект души, волшебства. Дух Шервуда входит в дом с экрана и никого не оставляет равнодушным.

Источник/Качество: DVDRip
Формат: AVI
Видео кодек: XviD
Аудио кодек: MP3
Видео: 640x480, 25 fps, ~1654 kbps avg, ~0.195 bit/pixel
Аудио 1: 48 kHz, MP3, 2 ch, 128.00 kbps (Rus)
Аудио 2: 48 kHz, MP3, 2 ch, ~110.00 kbps (Eng)
Формат : AVI
Формат/Информация : Audio Video Interleave
Размер файла : 649 Мбайт
Продолжительность : 52 м.
Режим общего битрейта : Переменный
Общий поток : 1742 Кбит/сек
Программа кодирования : VirtualDubModRus 1.5.10.2 (build 2542/release)
Библиотека кодирования : VirtualDubMod build 2542/release
Видео
Идентификатор : 0
Формат : MPEG-4 Visual
Профиль формата : Advanced [email protected]
Параметр BVOP формата : 1
Параметр QPel формата : Нет
Параметр GMC формата : Без точки перехода
Параметр матрицы формата : Выборочная
Идентификатор кодека : XVID
Идентификатор кодека/Подсказка : XviD
Продолжительность : 52 м.
Битрейт : 1486 Кбит/сек
Ширина : 640 пикселей
Высота : 480 пикселей
Соотношение сторон : 4:3
Частота кадров : 25,000 кадров/сек
Цветовое пространство : YUV
Субдискретизация насыщенности : 4:2:0
Битовая глубина : 8 бит
Тип развёртки : Прогрессивная
Метод сжатия : С потерями
Бит/(Пиксели*Кадры) : 0.194
Размер потока : 554 Мбайт (85%)
Библиотека кодирования : XviD 1.2.0.dev47 (UTC 2006-11-01)
Аудио #1
Идентификатор : 1
Формат : MPEG Audio
Версия формата : Version 1
Профиль формата : Layer 3
Режим : Joint stereo
Расширение режима : MS Stereo
Идентификатор кодека : 55
Идентификатор кодека/Подсказка : MP3
Продолжительность : 51 м.
Вид битрейта : Постоянный
Битрейт : 128 Кбит/сек
Каналы : 2 канала
Частота : 48,0 КГц
Метод сжатия : С потерями
Размер потока : 47,5 Мбайт (7%)
Выравнивание : Соединение по промежуткам
Продолжительность промежутка : 40 мс. (1,00 видеокадр)
Время предзагрузки промежутка : 504 мс.
Аудио #2
Идентификатор : 2
Формат : MPEG Audio
Версия формата : Version 1
Профиль формата : Layer 3
Режим : Joint stereo
Расширение режима : MS Stereo
Идентификатор кодека : 55
Идентификатор кодека/Подсказка : MP3
Продолжительность : 52 м.
Вид битрейта : Переменный
Битрейт : 110 Кбит/сек
Номинальный битрейт : 128 Кбит/сек
Каналы : 2 канала
Частота : 48,0 КГц
Метод сжатия : С потерями
Размер потока : 41,1 Мбайт (6%)
Выравнивание : Соединение по промежуткам
Продолжительность промежутка : 24 мс. (0,60 видеокадр)
Время предзагрузки промежутка : 490 мс.
Библиотека кодирования : LAME3.97
Настройки программы : -m j -V 4 -q 2 -lowpass 17 --abr 128
1-1. Робин Гуд и колдун (первая серия) (Robin Hood and the Sorcerer) 1984
1-2. Робин Гуд и колдун (вторая серия) (Robin Hood and the Sorcerer) 1984
1-3. Ведьма из Элсдона (The Witch of Elsdon) 1984
1-4. Семь бедных рыцарей из Акры (Seven Poor Knights from Acre) 1984
1-5. Алан из Долины (Alan a Dale) 1984
1-6. Королевский шут (The King,s Fool) 1984
2-1. Пророчество (The Prophecy) 1985
2-2. Дети Израиля (The Children of Israel) 1985
2-3. Повелитель деревьев (Lord of the Trees) 1985
2-4. Колдовство (The Enchantment) 1985
2-5. Мечи Вейланда (первая серия) (The Swords of Wayland - Part I) 1985
2-6. Мечи Вейланда (вторая серия) (The Swords of Wayland - Part II) 1985
2-7. Злейший враг (The Greatest Enemy) 1985
3-1 и 2. Сын Херна (Herne's Son)
3-3. Сила альбиона (The Power Of Albion)
3-4. Наследство (The Inheritance)
3-5. Шериф Ноттингема (The Sheriff Of Nottingham)
3-6. Крест святого Сирка (The Cross Of St. Ciricus)
3-7. Кром Круак (Cromm Cruac)
3-8. Предательство (The Betrayal)
3-9. Адам Белл (Adam Bell)
3-10. Претендент (The Pretender)
3-11. Рутеркин (Rutterkin)
3-12 и 13. Час волка (The Time of The Wolf), 2 серии
Download / Скачать

Хотите скачать бесплатно? Зарегистрируйтесь на сайте (ссылка на регистрацию). Pirat.ca - самый быстрый торрент трекер в рунете!

Как скачивать  ·   Что такое торрент  ·   Рейтинг и ограничения

sandman1973 ®

Гроза морей

2129

Пост 02-Июл-2012 17:17 (спустя 3 минуты)

[Q] 

Здесь все полные 3 сезона от портала FTP85 с 2 дорожками!

_________________



Последний раз редактировалось: sandman1973 (2012-07-19 21:27), всего редактировалось 1 раз
[Профиль]  [ЛС] 

Принц Датский

Корсар

Пост 03-Июл-2012 16:36 (спустя 23 часа)

[Q] 

sandman1973, держи пять!!! az fh aa

_________________
[Профиль]  [ЛС] 

Пост 04-Июл-2012 01:14 (спустя 8 часов)

Топик был перенесен из форума Сериалы в форум Зарубежные сериалы

Андря
 

Гатар

Морской Волк

130

Пост 25-Май-2014 11:59 (спустя 1 год 10 месяцев)

[Q] 

Спасибо!!! Обязательно помогу с раздачей.
[Профиль]  [ЛС] 
Показать сообщения:    
Ответить на тему

Текущее время: Сегодня 18:09

Часовой пояс: GMT + 4



Вы не можете начинать темы
Вы не можете отвечать на сообщения
Вы не можете редактировать свои сообщения
Вы не можете удалять свои сообщения
Вы не можете голосовать в опросах
Вы не можете прикреплять файлы к сообщениям
Вы не можете скачивать файлы

▼ Вниз