ML
     
  Уважаемый Гость!
Вы можете поддержать проект и зарегистрироваться у наших партнеров - онлайн-стратегия MyLands. При регистрации в игре Вы получите код, который сможете активировать после регистрации на pirat.ca и получить 1000 дублонов.

Ваш код:
ba41f7961e0b4717aed6a401d955262223b8f6c4
 
     

Бэкстром / Backstrom / Сезон 1 / Полный / Серии: 13 из 13 (Сара Пиа Андерсон / Sarah Pia Anderson) [2015г., драма, комедия, криминал, ..., WEB-DLRip] MVO (Alternative Production)

Ответить на тему
 
Автор
Сообщение

Пост 21-Июл-2012 08:46

[Q] 

kugesan

Бэкстром / Backstrom - Русское название: Бэкстром
Оригинальное название: Backstrom
Страна: США
Год выпуска: 2015
Жанр: Детектив, Драма, Криминал-Премьера (мир): 22 января 2015, ...-Озвучка: Студия Alternative Production
Перевод: Многоголосый закадровый, профессиональный-Режиссер: Сара Пиа Андерсон / Sarah Pia Anderson, Адам Аркин / Adam Arkin, Алекс Чаппл / Alex Chapple , ...
Актеры: Рэйн Уилсон, Пейдж Кеннеди, Беатрис Розен, Женевьева Энджелсон, Деннис Хейсбёрт, Кристоффер Полаха, Томас Деккер, Бен Холлингсворт, Ризван Манжи, Инга Кадранел, ...-Описание фильма:
Детектив Эверет Бекстром обладает скверным характером и находится во власти дурных привычек. Он обидчив, вспыльчив, ленив, злоупотребляет спиртным и предвзято относится к миру. Эгоистичный детектив испытывает нежность к своим рыбкам и бутылке ликера. Однако именно Бекстрома назначают главой Портлендского спецотдела по расследованию особых преступлений, ведь несмотря на самоубийственное поведение, он блестящий сыщик. Эверет со своей командой эксцентричных криминалистов имеют дело с тяжкими и нашумевшими злодеяниями. Подчиненные терпят агрессивного и растрепанного босса, отдавая должное его потрясающему аналитическому мышлению. Словно через сито, Бекстром просеивает все улики, вытаскивая на поверхность темные детали. Его логические выводы и интуиция бьют в десятку. Но надолго ли алкоголик, страдающий ожирением, сохранит ясность ума?-Сезон: 1
Серии: 13 из 13 серий
Продолжительность: ~ 00:44:00 мин серия-
Качество видео: WEB-DLRip
Формат: AVI
Видеокодек: XviD
Аудиокодек: Mp3
Видео: MPEG-4 Visual at 1695 Кбит/сек: 720 x 400 (1.800) at 23.976 fps, 0.24 Бит/Пиксели
Аудио: MPEG Audio at 192 Кбит/сек: 2 канала, 48,0 КГц
- -
  • Победитель дракона (Dragon Slayer)
  • Белла (Bella)
  • По себе не судят (Takes One to Know One)
  • Теперь я птица (I Am a Bird Now)
  • Призрак (Bogeyman)
  • Древние, Китайский, Секрет (Ancient, Chinese, Secret)
  • Враг моих врагов (Enemy of my Enemies)
  • Неизбежная правда (The Inescapable Truth)
  • Давай, пока не почувствуешь боли (Give 'Til It Hurts)
  • Любовь - повышение, и Вы лучше не выбираете ее (Love Is a Rose and You Better Not Pick It)
  • Мне нравится смотреть (I Like to Watch)
  • Штопор (Corkscrewed)
  • Самое дно (Rock Bottom)
-
Общее
Полное имя : E:\_Сериалы\_Сериалы\Бэкстром\Бэкстром [Alternative Production]\Backstrom s01e01 [Alt Pro].avi
Формат : AVI
Формат/Информация : Audio Video Interleave
Размер файла : 597 Мбайт
Продолжительность : 44 м.
Общий поток : 1897 Кбит/сек
Библиотека кодирования : VirtualDub build 32842/release
Видео
Идентификатор : 0
Формат : MPEG-4 Visual
Профиль формата : Advanced [email protected]
Параметр BVOP формата : 2
Параметр QPel формата : Нет
Параметр GMC формата : Без точки перехода
Параметр матрицы формата : Default (H.263)
Режим смешивания : Сжатый битовый поток
Идентификатор кодека : XVID
Идентификатор кодека/Подсказка : XviD
Продолжительность : 44 м.
Битрейт : 1695 Кбит/сек
Ширина : 720 пикселей
Высота : 400 пикселей
Соотношение сторон : 16:9
Частота кадров : 23,976 кадра/сек
Цветовое пространство : YUV
Субдискретизация насыщенности : 4:2:0
Битовая глубина : 8 бит
Тип развёртки : Прогрессивная
Метод сжатия : С потерями
Бит/(Пиксели*Кадры) : 0.245
Размер потока : 534 Мбайт (89%)
Библиотека кодирования : XviD 73
Аудио
Идентификатор : 1
Формат : MPEG Audio
Версия формата : Version 1
Профиль формата : Layer 3
Режим : Joint stereo
Идентификатор кодека : 55
Идентификатор кодека/Подсказка : MP3
Продолжительность : 44 м.
Вид битрейта : Постоянный
Битрейт : 192 Кбит/сек
Каналы : 2 канала
Частота : 48,0 КГц
Метод сжатия : С потерями
Размер потока : 60,5 Мбайт (10%)
Выравнивание : Разделение по промежуткам
Продолжительность промежутка : 42 мс. (1,00 видеокадр)
Время предзагрузки промежутка : 500 мс.
-
-Скриншоты:
-
-
1. Открыть торрент
2. Снять галки с тех файлов торрента, которые мы не хотим закачивать. Оставляем только на нужных нам файлах (файле).
3. Нажать О.К.
В клиенте utorrent
Инструкция
1) Открыть торрент

2) Снять галки с тех файлов торрента, которые мы не хотим закачивать:
* либо вручную, снимая с каждого файла галку( скрин №1)
* либо, нажав кнопку "Снять метки (Select None)", сняв сразу со всех файлов(скрин №2)
№1

№2

Оставляем только на нужных нам файлах (файле).

3)Нажать О.К
-Добавлена тринадцатая, заключительная, серия первого сезона
Download / Скачать

Хотите скачать бесплатно? Зарегистрируйтесь на сайте (ссылка на регистрацию). Pirat.ca - самый быстрый торрент трекер в рунете!

Как скачивать  ·   Что такое торрент  ·   Рейтинг и ограничения



Последний раз редактировалось: kugesan (2015-05-09 14:20), всего редактировалось 28 раз(а)

ReasonX

Штурман

Пост 30-Мар-2015 23:52 (спустя 2 года 8 месяцев)

[Q] 

А бывает в другом переводе? А то эти ребята как то совсем, то переигрывают, то без выражения.
[Профиль]  [ЛС] 

kugesan ®

56710

Пост 31-Мар-2015 09:39 (спустя 9 часов)

[Q] 

ReasonX, пользуйтесь поиском - Бэкстром / Backstrom / Сезон: 1 / Серии: 1-6 из 13 (Hart Hanson / Харт Хэнсон) [2015 г., Детективная драмеди, WEB-DLRip] MVO (ViruseProject) (обновляемая)

_________________

В мире две бесконечности: вселенная и человеческая глупость - Альберт Эйнштен
«Можно вытащить человека из грязи, но нельзя вытащить грязь из человека»!
[Профиль]  [ЛС] 

pdb08

Легенда

Пост 08-Апр-2015 20:20 (спустя 8 дней)

[Q] 

Спасибо за труды! Пиратка рулез!!!

_________________
[Профиль]  [ЛС] 

kugesan ®

56710

Пост 08-Апр-2015 21:15 (спустя 54 минуты)

[Q] 

Приятного просмотра!!!

_________________

В мире две бесконечности: вселенная и человеческая глупость - Альберт Эйнштен
«Можно вытащить человека из грязи, но нельзя вытащить грязь из человека»!
[Профиль]  [ЛС] 

ReasonX

Штурман

Пост 08-Апр-2015 21:51 (спустя 35 минут)

[Q] 

Я перепутал, это как раз те ребята XD
Этот норм.
[Профиль]  [ЛС] 

kugesan ®

56710

Пост 08-Апр-2015 23:07 (спустя 1 час 16 минут)

[Q] 

Приятного просмотра!!!!

_________________

В мире две бесконечности: вселенная и человеческая глупость - Альберт Эйнштен
«Можно вытащить человека из грязи, но нельзя вытащить грязь из человека»!
[Профиль]  [ЛС] 

kugesan ®

56710

Пост 09-Май-2015 14:32 (спустя 1 месяц)

[Q] 

Добавлена тринадцатая, заключительная, серия первого сезона

_________________

В мире две бесконечности: вселенная и человеческая глупость - Альберт Эйнштен
«Можно вытащить человека из грязи, но нельзя вытащить грязь из человека»!
[Профиль]  [ЛС] 
Показать сообщения:    
Ответить на тему

Текущее время: Сегодня 14:49

Часовой пояс: GMT + 4



Вы не можете начинать темы
Вы не можете отвечать на сообщения
Вы не можете редактировать свои сообщения
Вы не можете удалять свои сообщения
Вы не можете голосовать в опросах
Вы не можете прикреплять файлы к сообщениям
Вы не можете скачивать файлы

▼ Вниз