ML
     
  Уважаемый Гость!
Вы можете поддержать проект и зарегистрироваться у наших партнеров - онлайн-стратегия MyLands. При регистрации в игре Вы получите код, который сможете активировать после регистрации на pirat.ca и получить 1000 дублонов.

Ваш код:
ca44e9295b9b8527ba1c339c20494f70782efea6
 
     

Родина / Homeland / Сезон 5 / Серий: 12 из 12 (Лесли Линка Глаттер / Lesli Linka Glatter ...) [2015г., Триллер, драма, детектив, WEB-DLRip] MVO (LostFilm) [финал сезона]

Ответить на тему
 
Автор
Сообщение

Пост 16-Авг-2012 22:21

[Q] 

kugesan

Родина / Homeland
«The nation sees a hero. She sees a threat.»
- Русское название: Родина
Оригинальное название:Homeland
Страна: США
Год выпуска: 2015
Жанр: Триллер, драма, детектив-Озвучка: Студия
Перевод: Многоголосый закадровый, профессиональный-Премьера (мир): 2 октября 2011
Премьера (РФ): 5 июня 2013-Режиссер: Лесли Линка Глаттер / Lesli Linka Glatter, Майкл Куэста / Michael Cuesta, Дэниэл Эттиэс / Daniel Attias ...
Актеры: Клэр Дэйнс, Дэмиэн Льюис, Мэнди Пэтинкин, Морена Баккарин, Дэвид Хэрвуд, Руперт Френд, Джексон Пэйс, Морган Сэйлор, Ф. Мюррэй Абрахам, Диего Клаттенхофф ...-Описание фильма:
Главный герой сериала — сержант ВМФ США, который после восьмилетнего плена вернулся на родину. После возвращения он начинает себя вести подозрительно. Что бы во всём разобраться, за дело берётся офицер ЦРУ, которая обвиняет сержанта в предательстве и причастности к целой серии террористических актов против Америки.-Сезон: 5
Серии: 12 из 12 серий
Продолжительность: ~ 00:50:00 мин серия-Качество видео: WEB-DLRip
Формат: AVI
Видеокодек: XviD
Аудиокодек: Mp3
Видео: MPEG-4 Visual at 1152 Кбит/сек: 720 x 400 (1.800) at 23.976 fps, 0.17 Бит/Пиксели
Аудио Rus: MPEG Audio at 192 Кбит/сек: 2 канала, 48,0 КГц |LostFilm|
- -Сериал "Родина / Homeland" на треке Pirat.ca-
  • Боязнь разлуки (Separation Anxiety)
  • Обычаи гостеприимства (The Tradition of Hospitality)
  • Суперспособности (Super Powers)
  • Чем отличается эта ночь? (Why Is This Night Different?)
  • Лучше звоните Саулу (Better Call Saul)
  • Парабиоз (Parabiosis)
  • Иволга (Oriole)
  • Всё об Элисон (All About Allison)
  • Уловка Литвинова (The Litvinov Ruse)
  • Новая норма (New Normal)
  • Наш человек в Дамаске (Our Man in Damascus)
  • Блуждающий огонёк (A False Glimmer)
-
Общее
Полное имя : E:\_Сериалы\_Сериалы\Родина\Homeland.S05.rus.LostFilm.TV\Homeland.S05E01.rus.LostFilm.TV.avi
Формат : AVI
Формат/Информация : Audio Video Interleave
Размер файла : 487 Мбайт
Продолжительность : 50 м.
Режим общего битрейта : Переменный
Общий поток : 1353 Кбит/сек
Программа кодирования : Nandub v1.0rc2
Библиотека кодирования : Nandub build 1853/release
Видео
Идентификатор : 0
Формат : MPEG-4 Visual
Профиль формата : Advanced [email protected]
Параметр BVOP формата : Нет
Параметр QPel формата : Нет
Параметр GMC формата : Без точки перехода
Параметр матрицы формата : Default (H.263)
Идентификатор кодека : XVID
Идентификатор кодека/Подсказка : XviD
Продолжительность : 50 м.
Битрейт : 1152 Кбит/сек
Ширина : 720 пикселей
Высота : 400 пикселей
Соотношение сторон : 16:9
Частота кадров : 23,976 кадра/сек
Цветовое пространство : YUV
Субдискретизация насыщенности : 4:2:0
Битовая глубина : 8 бит
Тип развёртки : Прогрессивная
Метод сжатия : С потерями
Бит/(Пиксели*Кадры) : 0.167
Размер потока : 414 Мбайт (85%)
Библиотека кодирования : XviD 1.2.1 (UTC 2008-12-04)
Аудио
Идентификатор : 1
Формат : MPEG Audio
Версия формата : Version 1
Профиль формата : Layer 3
Режим : Joint stereo
Расширение режима : MS Stereo
Идентификатор кодека : 55
Идентификатор кодека/Подсказка : MP3
Продолжительность : 50 м.
Вид битрейта : Переменный
Битрейт : 192 Кбит/сек
Каналы : 2 канала
Частота : 48,0 КГц
Метод сжатия : С потерями
Размер потока : 67,5 Мбайт (14%)
Выравнивание : Соединение по промежуткам
Продолжительность промежутка : 24 мс. (0,58 видеокадр)
Время предзагрузки промежутка : 486 мс.
Библиотека кодирования : LAME3.97b
Настройки программы : -m j -V 4 -q 3 -lowpass 18.6 --abr 192
-
-Скриншоты:
-
-
Раздача ведётся путём добавления новых серий; при каждом добавлении создаётся новый торрент.
Чтобы начать докачку новой серии, пользователям необходимо сделать следующее:
1. остановить скачивание,
2. удалить старый торрент у себя из клиента (старые серии удалять не надо),
3. скачать новый торрент и запустить его у себя в клиенте вместо старого, при этом указать клиенту путь в старую папку, куда и должно происходить скачивание новых серий.
Ваш клиент при этом должен произвести хеширование (проверку) старой папки (если не производит сам - помогите ему сделать это), и будет докачивать только те серии которых у вас ещё нет. Старые серии при этом не удаляются, а продолжают раздаваться!
Eсли вы уже удалили старые серии, то предотвратить повторную закачку старых серий можно, отжав галочку в соответствующих местах при запуске нового торрента. По возможности, желательно не удалять старые серии как можно дольше, чтобы релизёр не столько продолжал раздавать старые серии, а смог сконцентрироваться на новых.
Совет для тех, кто не хочет ждать перехеширования:
Создайте ещё одну папку рядом с папкой сериала (рядом, а не в ней!!!). Каждую новую серию после удачной загрузки копируйте в новую папку так чтобы ваша основная папка всегда была пуста. Когда ваш новый торрент предложит вам закачать все файлы, выберете только последнюю. Для сидирования же укажите адрес новой папки.
Как закачать отдельный файл из торрента или докачать ранее пропущенные файлы торрента!
-
1. Открыть торрент
2. Снять галки с тех файлов торрента, которые мы не хотим закачивать. Оставляем только на нужных нам файлах (файле).
3. Нажать О.К.
В клиенте utorrent
Инструкция
1) Открыть торрент

2) Снять галки с тех файлов торрента, которые мы не хотим закачивать:
* либо вручную, снимая с каждого файла галку( скрин №1)
* либо, нажав кнопку "Снять метки (Select None)", сняв сразу со всех файлов(скрин №2)
№1

№2

Оставляем только на нужных нам файлах (файле).

3)Нажать О.К
-Добавлена двенадцатая, заключительная, серия пятого сезона
Download / Скачать

Хотите скачать бесплатно? Зарегистрируйтесь на сайте (ссылка на регистрацию). Pirat.ca - самый быстрый торрент трекер в рунете!

Как скачивать  ·   Что такое торрент  ·   Рейтинг и ограничения



Последний раз редактировалось: kugesan (2015-12-23 09:21), всего редактировалось 14 раз(а)

alex_dry

Гроза морей

Пост 29-Окт-2015 01:06 (спустя 3 года 2 месяца)

[Q] 

Раздающему респект! Лови бочку
[Профиль]  [ЛС] 

NIKROLUNGER

Флибустьер

58

Пост 10-Дек-2015 02:59 (спустя 1 месяц 12 дней)

[Q] 

Кто смотрит, Броуди так и не "ожил"? Без него сериал сильно потерял...
[Профиль]  [ЛС] 

kugesan ®

56622

Пост 23-Дек-2015 09:22 (спустя 13 дней)

[Q] 

Добавлена двенадцатая, заключительная, серия пятого сезона

_________________

В мире две бесконечности: вселенная и человеческая глупость - Альберт Эйнштен
«Можно вытащить человека из грязи, но нельзя вытащить грязь из человека»!
[Профиль]  [ЛС] 

Сабиров

Штурман

Пост 02-Янв-2016 13:29 (спустя 10 дней)

[Q] 

Жаль что бредли уже нет, от этого фильм потерял. Раздающему респект!
[Профиль]  [ЛС] 
Показать сообщения:    
Ответить на тему

Текущее время: Сегодня 16:13

Часовой пояс: GMT + 4



Вы не можете начинать темы
Вы не можете отвечать на сообщения
Вы не можете редактировать свои сообщения
Вы не можете удалять свои сообщения
Вы не можете голосовать в опросах
Вы не можете прикреплять файлы к сообщениям
Вы не можете скачивать файлы

▼ Вниз