ML
     
  Уважаемый Гость!
Вы можете поддержать проект и зарегистрироваться у наших партнеров - онлайн-стратегия MyLands. При регистрации в игре Вы получите код, который сможете активировать после регистрации на pirat.ca и получить 1000 дублонов.

Ваш код:
0fcd44bd35319f69313aa6e53b31c51cbff1c942
 
     

Во все тяжкие / Breaking Bad / Сезон: 5 / Серии: 1-16 из 16 (Адам Бернштейн/Adam Bernstein) [2012 г., боевик, криминал, драма, WEB-DL] DVO (Кубик в Кубе)

Страницы :  1, 2  След.

Ответить на тему
 
Автор
Сообщение

Пост 29-Авг-2012 13:16

[Q] 

banditdm

Морской Волк

-Во все тяжкие 5 сезон / Breaking Bad season 5-- Производство: США, AMC
Жанр: боевик, криминал, драма
Год выпуска: 2012 г.
Продолжительность: 47:00
Перевод: Профессиональный (двухголосый, закадровый) [Кубик в Кубе]
Режиссер: Адам Бернштейн/Adam Bernstein-В ролях: Брайан Крэнстон, Аарон Пол, Кармен Серано, Дэвид Хаус, Кристен Риттер, Бетси Брандт, Дин Норрис, Анна Ганн, Стивен Майкл Квезада -Описание: Пожилой учитель химии, столкнувшийся со страшной жизненной проблемой для решения которой нужно много денег, очень много денег, начинает варить наркотики, так как в этом деле полностью раскрывается его потенциал. Ему помогает бывший ученик, который давным давно погряз в этом, а лучшим аргументом в пользу сотрудничества является компромат, который есть у Уолтера Уайта. Но мало уметь варить отличный «товар». Его нужно уметь сбывать. А вот как раз с этим проблемы. Сколько нужно встреч с преступниками, чтобы найти надежного покупателя, ведь толкать наркотики тет-а-тет мало выгодно? И где гарантия, что все встречи ради этого заветного знакомства, пройдут гладко, и никто не захочет тебя обмануть или того хуже убить? Их нет. Но даже, если все наладилось, изготовления наркотиков и их продажа — это криминал. А в криминале остаться белым и пушистым, как известно, невозможно.-
Качество видео: WEB-DL
Формат видео: AVI
Видео кодек: XviD
Аудио кодек: MP3
Видео: 624x352, 1016 Кбит/сек, 23,976 кадра/сек
Аудио: 224 Кбит/сек, 2 канала, 48,0 КГц
Аудио #2: 224 Кбит/сек, 2 канала, 48,0 КГц
Cубтитры: отсутствуют
Качество видео: WEB-DL
Формат видео: AVI
Видео кодек: XviD
Аудио кодек: MP3
Видео: 720x400, 1998 Кбит/сек, 23,976 кадра/сек
Аудио: 384 Кбит/сек, 6 каналов, 48,0 КГц
Аудио #2: 384 Кбит/сек, 6 каналов, 48,0 КГц
Cубтитры: отсутствуют
Формат: AVI
Формат/Информация: Audio Video Interleave
Размер файла: 454 Мбайт
Продолжительность: 42 м.
Общий поток: 1478 Кбит/сек
Программа кодирования: VirtualDubMod 1.5.10.2 (build 2540/release)
Библиотека кодирования: VirtualDubMod build 2540/release
Видео
Идентификатор: 0
Формат: MPEG-4 Visual
Профиль формата: Advanced [email protected]
Параметр BVOP формата: 1
Параметр QPel формата: Нет
Параметр GMC формата: Без точки перехода
Параметр матрицы формата: Default (H.263)
Идентификатор кодека: XVID
Идентификатор кодека/Подсказка: XviD
Продолжительность: 42 м.
Битрейт: 1016 Кбит/сек
Ширина: 624 пикселя
Высота: 352 пикселя
Соотношение сторон: 16:9
Частота кадров: 23,976 кадра/сек
Цветовое пространство: YUV
Субдискретизация насыщенности: 4:2:0
Битовая глубина: 8 бит
Тип развёртки: Прогрессивная
Метод сжатия: С потерями
Бит/(Пиксели*Кадры): 0.193
Размер потока: 312 Мбайт (69%)
Библиотека кодирования: XviD 65
Аудио #1
Идентификатор: 1
Формат: MPEG Audio
Версия формата: Version 1
Профиль формата: Layer 3
Идентификатор кодека: 55
Идентификатор кодека/Подсказка: MP3
Продолжительность: 42 м.
Вид битрейта: Постоянный
Битрейт: 224 Кбит/сек
Каналы: 2 канала
Частота: 48,0 КГц
Метод сжатия: С потерями
Размер потока: 68,8 Мбайт (15%)
Выравнивание: Соединение по промежуткам
Продолжительность промежутка: 42 мс. (1,00 видеокадр)
Время предзагрузки промежутка: 504 мс.
Аудио #2
Идентификатор: 2
Формат: AC-3
Формат/Информация: Audio Coding 3
Расширение режима: CM (complete main)
Параметр Endianness формата: Big
Идентификатор кодека: 2000
Продолжительность: 42 м.
Вид битрейта: Постоянный
Битрейт: 224 Кбит/сек
Каналы: 2 канала
Расположение каналов: Front: L R
Частота: 48,0 КГц
Битовая глубина: 16 бит
Метод сжатия: С потерями
Размер потока: 68,8 Мбайт (15%)
Выравнивание: Разделение по промежуткам
Продолжительность промежутка: 42 мс. (1,00 видеокадр)
Время предзагрузки промежутка: 500 мс.
Формат: AVI
Формат/Информация: Audio Video Interleave
Размер файла: 940 Мбайт
Продолжительность: 47 м.
Общий поток: 2779 Кбит/сек
Программа кодирования: VirtualDubMod 1.5.10.2 (build 2540/release)
Библиотека кодирования: VirtualDubMod build 2540/release
Видео
Идентификатор: 0
Формат: MPEG-4 Visual
Профиль формата: Advanced [email protected]
Параметр BVOP формата: 1
Параметр QPel формата: Нет
Параметр GMC формата: Без точки перехода
Параметр матрицы формата: Default (MPEG)
Идентификатор кодека: XVID
Идентификатор кодека/Подсказка: XviD
Продолжительность: 47 м.
Битрейт: 1998 Кбит/сек
Ширина: 720 пикселей
Высота: 400 пикселей
Соотношение сторон: 16:9
Частота кадров: 23,976 кадра/сек
Цветовое пространство: YUV
Субдискретизация насыщенности: 4:2:0
Битовая глубина: 8 бит
Тип развёртки: Прогрессивная
Метод сжатия: С потерями
Бит/(Пиксели*Кадры): 0.289
Размер потока: 676 Мбайт (72%)
Библиотека кодирования: XviD 65
Аудио #1
Идентификатор: 1
Формат: AC-3
Формат/Информация: Audio Coding 3
Расширение режима: CM (complete main)
Параметр Endianness формата: Big
Идентификатор кодека: 2000
Продолжительность: 47 м.
Вид битрейта: Постоянный
Битрейт: 384 Кбит/сек
Каналы: 6 каналов
Расположение каналов: Front: L C R, Side: L R, LFE
Частота: 48,0 КГц
Битовая глубина: 16 бит
Метод сжатия: С потерями
Размер потока: 130 Мбайт (14%)
Выравнивание: Разделение по промежуткам
Продолжительность промежутка: 42 мс. (1,00 видеокадр)
Время предзагрузки промежутка: 500 мс.
Аудио #2
Идентификатор: 2
Формат: AC-3
Формат/Информация: Audio Coding 3
Расширение режима: CM (complete main)
Параметр Endianness формата: Big
Идентификатор кодека: 2000
Продолжительность: 47 м.
Вид битрейта: Постоянный
Битрейт: 384 Кбит/сек
Каналы: 6 каналов
Расположение каналов: Front: L C R, Side: L R, LFE
Частота: 48,0 КГц
Битовая глубина: 16 бит
Метод сжатия: С потерями
Размер потока: 130 Мбайт (14%)
Выравнивание: Разделение по промежуткам
Продолжительность промежутка: 42 мс. (1,00 видеокадр)
Время предзагрузки промежутка: 500 мс.
Золотой глобус - Номинаций: 2
Сатурн - Номинаций: 12, Победителей: 6
Эмми - Номинаций: 9, Победителей: 4
16-я серия 5-го сезона является заключительной. Продолжения сериала больше не будет.
Торрент файл обновлен. Добавлена 16-я, заключительная, серия.Просьба перекачать торрент файл.Приятного просмотра
Download / Скачать

Хотите скачать бесплатно? Зарегистрируйтесь на сайте (ссылка на регистрацию). Pirat.ca - самый быстрый торрент трекер в рунете!

Как скачивать  ·   Что такое торрент  ·   Рейтинг и ограничения



Последний раз редактировалось: banditdm (2013-10-02 01:15), всего редактировалось 9 раз(а)

ZeDsDead

Штурман

Пост 29-Авг-2012 16:07 (спустя 2 часа 50 минут)

[Q] 

Спасибо, но лучше подожду лостфильма, кубики моей семье не понравились по качеству озвучки и самому переводу некоторых моментов, хотя и говорят, что точнее, чем лостовский
[Профиль]  [ЛС] 

Дядя Витя

53908

Пост 02-Сен-2012 22:51 (спустя 4 дня)

[Q] 


_________________
?
[Профиль]  [ЛС] 

Skam782712

Шкипер

Пост 04-Сен-2012 06:34 (спустя 1 день 7 часов)

[Q] 

Дайте скорости!!!
[Профиль]  [ЛС] 

Almighty937

Шкипер

Пост 27-Сен-2012 02:37 (спустя 22 дня)

[Q] 


[Профиль]  [ЛС] 

Муравей

Корсар

Пост 17-Окт-2012 17:46 (спустя 20 дней)

[Q] 

походу не будут
[Профиль]  [ЛС] 

TimofeySerykh

Шкипер

Пост 08-Ноя-2012 07:03 (спустя 21 день)

[Q] 

[Профиль]  [ЛС] 

FruTT

Корсар

2

Пост 29-Ноя-2012 22:14 (спустя 21 день)

[Q] 

Спасибо!! Суперский сериал, жду 9 часть, 8 уже вышли давненько))

_________________
Подпись отключена за нарушение правил форума
[Профиль]  [ЛС] 

I7aTpuoT

Штурман

Пост 08-Янв-2013 23:09 (спустя 1 месяц 9 дней)

[Q] 

[Профиль]  [ЛС] 

Нэйтон

Флибустьер

Пост 31-Май-2013 10:54 (спустя 4 месяца 22 дня)

[Q] 

Сериал супер bp Мне очень понравился, только его надо смотреть с 1 го сезона bp
[Профиль]  [ЛС] 

VictorD

Шкипер

66

Пост 11-Июл-2013 21:47 (спустя 1 месяц 11 дней)

[Q] 

Ребзя, скоро окончание!!!!
[Профиль]  [ЛС] 

cleric159753

Морской Волк

Пост 13-Сен-2013 18:10 (спустя 2 месяца 1 день)

[Q] 

!COOL! Спасибо!!! заценим

_________________
[Профиль]  [ЛС] 

banditdm ®

Морской Волк

515

Пост 19-Сен-2013 21:27 (спустя 6 дней)

[Q] 

Огромная просьба к тем кто первыми скачает - сообщить. Добавлю 14 серию.

_________________
[Профиль]  [ЛС] 

LEE HARVEY

Лоцман

Пост 20-Сен-2013 19:50 (спустя 22 часа)

[Q] 

Уже давно все скачал и посмотрел!)) С нетерпением жду 14-ю! Зуб даю...
[Профиль]  [ЛС] 

LEE HARVEY

Лоцман

Пост 20-Сен-2013 19:57 (спустя 7 минут)

[Q] 

Правда я не целиком его качал, а только 13-ю серию, уж очень долго ждал дубляж от Кубиков и пару серий от Лоста зацепил. Но если надо целиком залить, что бы 14-ю добавить... Уже качаю)))
[Профиль]  [ЛС] 

banditdm ®

Морской Волк

515

Пост 20-Сен-2013 22:56 (спустя 2 часа 58 минут)

[Q] 

14-я серия добавлена. Просьба ко всем, удалить старый торрент файл и скачать новый. Всем приятного просмотра.

_________________
[Профиль]  [ЛС] 

LEE HARVEY

Лоцман

Пост 20-Сен-2013 23:34 (спустя 37 минут)

[Q] 

Спасибо!!! за реакцию!
[Профиль]  [ЛС] 

banditdm ®

Морской Волк

515

Пост 20-Сен-2013 23:49 (спустя 15 минут)

[Q] 

425510 Спасибо!!! за реакцию!
Всегда пожалуйста.

_________________
[Профиль]  [ЛС] 

LEE HARVEY

Лоцман

Пост 24-Сен-2013 23:01 (спустя 3 дня)

[Q] 

Когда ждать 15-ю?)
[Профиль]  [ЛС] 

banditdm ®

Морской Волк

515

Пост 25-Сен-2013 00:08 (спустя 1 час 6 минут)

[Q] 

Думаю дня через 2 появится перевод Кубиков.

_________________
[Профиль]  [ЛС] 

LEE HARVEY

Лоцман

Пост 25-Сен-2013 14:29 (спустя 14 часов)

[Q] 

427270Думаю дня через 2 появится перевод Кубиков.
Спасибо! Ждемс)
[Профиль]  [ЛС] 

KadaFFi

Корсар

Пост 25-Сен-2013 21:13 (спустя 6 часов)

[Q] 

Быстрей бы узнать концовку...

_________________
[Профиль]  [ЛС] 

banditdm ®

Морской Волк

515

Пост 25-Сен-2013 21:34 (спустя 21 минута)

[Q] 

Очень сильно извиняюсь. Пока что в раздаче 15-я серия немного другого качества (но ничуть не хуже). В ближайшее время постараюсь исправить. Проблема в компьютере так что пока бессилен. Просьба не закрывать раздачу. Либо исправлю описание качества, либо заменю файл на нужного качества.

_________________
[Профиль]  [ЛС] 

TriGun

Морской Волк

Пост 26-Сен-2013 23:47 (спустя 1 день 2 часа)

[Q] 

Спасибо!!! Супер! заценим! Х)

_________________
[Профиль]  [ЛС] 

MisterHiro

Лоцман

Пост 30-Сен-2013 20:29 (спустя 3 дня)

[Q] 

Супер!!! Как просили, помогаю в раздаче!
[Профиль]  [ЛС] 

raul kurochka

Корсар

Пост 01-Окт-2013 19:43 (спустя 23 часа)

[Q] 


ну когда же уже... так не хочется Лостовский недоперевод смотреть(

_________________
...ЧО ТАКОЙ СЕРЬЕЗНЫЙ???
[Профиль]  [ЛС] 

banditdm ®

Морской Волк

515

Пост 01-Окт-2013 23:33 (спустя 3 часа)

[Q] 

Сам не стал смотреть Лост. Жду Кубика на Now уже появился, а у мну доступа нет, жду када товарисчь скинет с Now. Надеюсь завтра с утра уже залью.

_________________
[Профиль]  [ЛС] 

banditdm ®

Морской Волк

515

Пост 02-Окт-2013 01:24 (спустя 1 час 50 минут)

[Q] 

16-я серия добавлена.

_________________
[Профиль]  [ЛС] 

KadaFFi

Корсар

Пост 03-Окт-2013 12:43 (спустя 1 день 11 часов)

[Q] 

Закончился лучший сериал последних лет... In Heizenberg We Trust!

_________________
[Профиль]  [ЛС] 

banditdm ®

Морской Волк

515

Пост 03-Окт-2013 17:41 (спустя 4 часа)

[Q] 

430828Закончился лучший сериал последних лет... In Heizenberg We Trust!
Согласен. С одной стороны жаль, а с другой стороны хорошо что сериал не растянули на 20 сезонов и не превратили в кусок кала. А то оказалось бы в 17 сезоне что мет варили инопланетяне для порабощения Земли, а все герои на самом деле давно мертвы и борятся против демонов в аду.

_________________
[Профиль]  [ЛС] 
Показать сообщения:    
Ответить на тему

Текущее время: Сегодня 02:10

Часовой пояс: GMT + 4



Вы не можете начинать темы
Вы не можете отвечать на сообщения
Вы не можете редактировать свои сообщения
Вы не можете удалять свои сообщения
Вы не можете голосовать в опросах
Вы не можете прикреплять файлы к сообщениям
Вы не можете скачивать файлы

▼ Вниз