ML
     
  Уважаемый Гость!
Вы можете поддержать проект и зарегистрироваться у наших партнеров - онлайн-стратегия MyLands. При регистрации в игре Вы получите код, который сможете активировать после регистрации на pirat.ca и получить 1000 дублонов.

Ваш код:
ea554e7ed3eacceeae87a8b30a9de3f086c18a84
 
     

Уилфред / Wilfred / Сезон: 1 / Серии: 13-13 (Рэндолл Эйнхорн, Виктор Нелли мл. / Randall Einhorn, Victor Nelli Jr.) [2011 г., Комедия, WEB-DL, ] DVO (Кубик в Кубе) + Eng

Ответить на тему
 
Автор
Сообщение

Пост 31-Авг-2012 01:50

[Q] 

Limitless

Шкипер

-Уилфред / Wilfred-- Производство: США
Жанр: Комедия
Год выпуска: 2011 г.
Продолжительность: 00:23:00
Мировая премьера: 23 июня 2011
Российская премьера: 27 августа 2012
Перевод: Профессиональный (двухголосый, закадровый) [Кубик в Кубе]
Оригинальный аудиопоток: английский
Режиссер: Рэндолл Эйнхорн, Виктор Нелли мл. / Randall Einhorn, Victor Nelli Jr.-В ролях: Фиона Габелманн, Элайджа Вуд, Джейсон Гэнн, Дориан Браун, Эл Сапьенза, Рэйчел Стерлинг, Марк Энтони Лопез, Мэттью Каминский-Описание: Молодой адвокат Райан, после потери работы, которую он все время ненавидел, впадает в депрессию. Он ходит к психологу, ведет тихую жизнь на оставшиеся денежные средства. Однажды, осознав что ему терять нечего, он делает себе молочный коктейль, в состав которого он добавил психотропные, успокаивающие средства. Для любого человека такая дозировка лекарств смертельна, но не для него. Вместо смерти, он каким-то необьяснимым образом начинает понимать соседскую собаку - Уилфреда. Что это: глюки или он все же умер? Ответа ищут многие.-
Качество видео: WEB-DL
Формат видео: AVI
Видео кодек: XviD
Аудио кодек: MP3
Видео: 656x368 (1.78:1), 23.976 fps, ~1200 kbps, 0.207 bit/pixel
Audio #1: 48 kHz, MPEG Layer 3, 2 ch, ~128.00 kbps avg | Русский, двухголосый
Audio #2: 48 kHz, MPEG Layer 3, 2 ch, ~128.00 kbps avg | Английский
Cубтитры: отсутствуют
Формат : AVI
Формат/Информация : Audio Video Interleave
Размер файла : 244 Мбайт
Продолжительность : 23 м.
Общий поток : 1470 Кбит/сек
Программа кодирования : VirtualDubMod 1.5.10.3 | www.virtualdub-fr.org || (build 2550/release)
Библиотека кодирования : VirtualDubMod build 2550/release
Видео
Идентификатор : 0
Формат : MPEG-4 Visual
Профиль формата : Advanced [email protected]
Параметр BVOP формата : 2
Параметр QPel формата : Нет
Параметр GMC формата : Без точки перехода
Параметр матрицы формата : Выборочная
Идентификатор кодека : XVID
Идентификатор кодека/Подсказка : XviD
Продолжительность : 23 м.
Битрейт : 1200 Кбит/сек
Ширина : 656 пикселей
Высота : 368 пикселей
Соотношение сторон : 16:9
Частота кадров : 23,976 кадра/сек
Цветовое пространство : YUV
Субдискретизация насыщенности : 4:2:0
Битовая глубина : 8 бит
Тип развёртки : Прогрессивная
Метод сжатия : С потерями
Бит/(Пиксели*Кадры) : 0.207
Размер потока : 199 Мбайт (82%)
Библиотека кодирования : XviD 64
Аудио #1
Идентификатор : 1
Формат : MPEG Audio
Версия формата : Version 1
Профиль формата : Layer 3
Режим : Joint stereo
Расширение режима : MS Stereo
Идентификатор кодека : 55
Идентификатор кодека/Подсказка : MP3
Продолжительность : 23 м.
Вид битрейта : Постоянный
Битрейт : 128 Кбит/сек
Каналы : 2 канала
Частота : 48,0 КГц
Метод сжатия : С потерями
Размер потока : 21,3 Мбайт (9%)
Выравнивание : Соединение по промежуткам
Продолжительность промежутка : 42 мс. (1,00 видеокадр)
Время предзагрузки промежутка : 504 мс.
Аудио #2
Идентификатор : 2
Формат : MPEG Audio
Версия формата : Version 1
Профиль формата : Layer 3
Режим : Joint stereo
Расширение режима : MS Stereo
Идентификатор кодека : 55
Идентификатор кодека/Подсказка : MP3
Продолжительность : 23 м.
Вид битрейта : Постоянный
Битрейт : 128 Кбит/сек
Каналы : 2 канала
Частота : 48,0 КГц
Метод сжатия : С потерями
Размер потока : 21,3 Мбайт (9%)
Выравнивание : Соединение по промежуткам
Продолжительность промежутка : 42 мс. (1,00 видеокадр)
Время предзагрузки промежутка : 504 мс.
Download / Скачать

Хотите скачать бесплатно? Зарегистрируйтесь на сайте (ссылка на регистрацию). Pirat.ca - самый быстрый торрент трекер в рунете!

Как скачивать  ·   Что такое торрент  ·   Рейтинг и ограничения



Последний раз редактировалось: Limitless (2012-08-31 10:19), всего редактировалось 2 раз(а)

Пост 31-Авг-2012 19:29 (спустя 17 часов)

Топик был перенесен из форума Зарубежные сериалы (Трюм) в форум Зарубежные сериалы

gEmOkPaT
 

Пост 13-Фев-2013 15:53 (спустя 5 месяцев 13 дней)

Топик был перенесен из форума Зарубежные сериалы в форум Архив (Зарубежные сериалы)

Андря
 

erchine

44807

Пост 18-Фев-2013 15:03 (спустя 5 месяцев 18 дней)

[Q] 

Восстановлено из архива
[Профиль]  [ЛС] 

TTPOCTO

Лоцман

Пост 24-Дек-2013 21:31 (спустя 10 месяцев 6 дней)

[Q] 

Эй, вернитесь на раздачу... раздавать будем или как?
[Профиль]  [ЛС] 
Показать сообщения:    
Ответить на тему

Текущее время: Сегодня 12:12

Часовой пояс: GMT + 4



Вы не можете начинать темы
Вы не можете отвечать на сообщения
Вы не можете редактировать свои сообщения
Вы не можете удалять свои сообщения
Вы не можете голосовать в опросах
Вы не можете прикреплять файлы к сообщениям
Вы не можете скачивать файлы

▼ Вниз