ML
     
  Уважаемый Гость!
Вы можете поддержать проект и зарегистрироваться у наших партнеров - онлайн-стратегия MyLands. При регистрации в игре Вы получите код, который сможете активировать после регистрации на pirat.ca и получить 1000 дублонов.

Ваш код:
193c38d0130f05c24de871678ea3ac181461757d
 
     

Последний Ван Хельсинг / Демоны / Demons / Сезон: 1 / Серии: 1-6 (Том Харпер / Tom Harper) [2009 г., Фэнтези, драма, семейный, DVDRip] Dub (ТВ3)

Ответить на тему
 
Автор
Сообщение

Пост 11-Сен-2012 19:23

[Q] 

kloctuk

-Последний Ван Хельсинг / Демоны / Demons-- Производство: Великобритания
Жанр: Фэнтези, драма, семейный
Год выпуска: 2009 г.
Продолжительность: 6 х 00:44:00
Перевод: Профессиональный (полное дублирование) [ТВ3]
Режиссер: Том Харпер / Tom Harper-В ролях: Филип Гленистер, Зои Таппер, Кристиан Кук, Холли Грэйнджер, Саския Викхэм, Пол Виграсс, Маккензи Крук, Ричард Уилсон, Томас Арнольд, Энди Уэрхем-Описание: Люк Ратерфорд узнает, что он правнук легендарного истребителя вампиров Абрахама Ван Хельсинга и последний Ван Хельсинг в современном мире. Идет война, но прежде чем стать воином, ему предстоит научиться истреблять мутантов, найти библиотеку своего отца, подружиться со своим крестным Рупертом Галвином и вырвать из цепких лап мутанта Гладиолуса Трипа, свою девушку Руби. Но сколько еще нелюдей скрывается в мире Полужизни и кто победит этой войне?-Качество видео: DVDRip
Формат видео: AVI
Видео кодек: XviD
Аудио кодек: AC3
Видео: 704x400 (1.76:1), 25 fps, XviD build 50 ~1407 kbps avg, 0.20 bit/pixel
Аудио: 48 kHz, AC3 Dolby Digital, 2/0 (L,R) ch, ~192 kb
Cубтитры: отсутствуют
бщее
Полное имя : N:\фильмы\Последний Ван Хельсинг\1x01 - They Bite.avi
Формат : AVI
Формат/Информация : Audio Video Interleave
Размер файла : 526 Мбайт
Продолжительность : 45 м.
Общий поток : 1609 Кбит/сек
Название фильма : Демоны. Сезон 1 / Последний Ван Хельcинг. Сезон 1 / Demons. Season 1 (2009)
Программа кодирования : VirtualDubMod 1.5.10.2 (build 2540/release)
Библиотека кодирования : VirtualDubMod build 2540/release
Видео
Идентификатор : 0
Формат : MPEG-4 Visual
Профиль формата : Advanced [email protected]
Параметр BVOP формата : 2
Параметр QPel формата : Нет
Параметр GMC формата : Без точки перехода
Параметр матрицы формата : Default (H.263)
Идентификатор кодека : XVID
Идентификатор кодека/Подсказка : XviD
Продолжительность : 45 м.
Битрейт : 1407 Кбит/сек
Ширина : 704 пикселя
Высота : 400 пикселей
Соотношение сторон : 16:9
Частота кадров : 25,000 кадров/сек
Цветовое пространство : YUV
Субдискретизация насыщенности : 4:2:0
Битовая глубина : 8 бит
Тип развёртки : Прогрессивная
Метод сжатия : С потерями
Бит/(Пиксели*Кадры) : 0.200
Размер потока : 460 Мбайт (87%)
Библиотека кодирования : XviD 1.2.1 (UTC 2008-12-04)
Аудио
Идентификатор : 1
Формат : AC-3
Формат/Информация : Audio Coding 3
Расширение режима : CM (complete main)
Параметр Endianness формата : Big
Идентификатор кодека : 2000
Продолжительность : 45 м.
Вид битрейта : Постоянный
Битрейт : 192 Кбит/сек
Каналы : 2 канала
Расположение каналов : Front: L R
Частота : 48,0 КГц
Битовая глубина : 16 бит
Метод сжатия : С потерями
Размер потока : 62,8 Мбайт (12%)
Выравнивание : Разделение по промежуткам
Продолжительность промежутка : 40 мс. (1,00 видеокадр)
Время предзагрузки промежутка : 500 мс.
Заголовок : Профессиональный (полное дублирование) ТВ3






Download / Скачать

Хотите скачать бесплатно? Зарегистрируйтесь на сайте (ссылка на регистрацию). Pirat.ca - самый быстрый торрент трекер в рунете!

Как скачивать  ·   Что такое торрент  ·   Рейтинг и ограничения



Последний раз редактировалось: kloctuk (2012-09-12 19:04), всего редактировалось 5 раз(а)

Nagoran

Корсар

149

Пост 11-Сен-2012 22:28 (спустя 3 часа)

[Q] 

я даже и не знаю стоит ли это смотреть ради фразы "Ван Хельсинг" или нет.
[Профиль]  [ЛС] 

kloctuk ®

3306

Пост 13-Сен-2012 00:01 (спустя 1 день 1 час)

[Q] 

Ну, говорят, разок можно...

_________________
-выстрели еще разок. -зачем? - его душа еще танцует...
[Профиль]  [ЛС] 

Пост 13-Сен-2012 11:25 (спустя 11 часов)

Топик был перенесен из форума Зарубежные сериалы (Трюм) в форум Зарубежные сериалы

Андря
 

fiona-d

Шкипер

32

Пост 05-Апр-2015 13:17 (спустя 2 года 6 месяцев)

[Q] 

благодарствую! Лови бочку
[Профиль]  [ЛС] 
Показать сообщения:    
Ответить на тему

Текущее время: Сегодня 18:03

Часовой пояс: GMT + 4



Вы не можете начинать темы
Вы не можете отвечать на сообщения
Вы не можете редактировать свои сообщения
Вы не можете удалять свои сообщения
Вы не можете голосовать в опросах
Вы не можете прикреплять файлы к сообщениям
Вы не можете скачивать файлы

▼ Вниз