ML
     
  Уважаемый Гость!
Вы можете поддержать проект и зарегистрироваться у наших партнеров - онлайн-стратегия MyLands. При регистрации в игре Вы получите код, который сможете активировать после регистрации на pirat.ca и получить 1000 дублонов.

Ваш код:
a6d1ef7ff63e237add5a4c8b21d8aa937c5e9b4b
 
     

Борджиа / The Borgias / Сезон: 02 / Серии: 1-10 (Нил Джордан, Джереми Подесва, Саймон Селлан Джоунс) [2012 г., драма, криминал, история, HDTVRip] [(Сезон 2 серии 1-10 из 10)[LostFilm]] MVO (lostfilm)

Ответить на тему
 
Автор
Сообщение

Пост 15-Сен-2012 14:06

[Q] 

Al148

Штурман

-Борджиа / The Borgias / (Сезон 2 серии 1-10 из 10)[LostFilm] (HDTVRip)-- Оригинальное название: The Borgias
Производство: Канада, Ирландия, Венгрия
Жанр: драма, криминал, история
Год выпуска: 2012 г.
Продолжительность: 00:55 x 10 серий
Перевод: Профессиональный (многоголосый, закадровый) [Lostfilm]
Режиссер: Нил Джордан, Джереми Подесва, Саймон Селлан Джоунс-В ролях: Джереми Айронс, Дэвид Оакес, Франсуа Арно, Холлидей Грейнджер, Лотте Вербеек, Джоанн Уолли, Мишель Мюллер и др.-Описание: В центре повествования - знаменитое семейство Борджиа, достигшее вершин власти в Италии эпохи Возрождения. Слоган сериала: «Секс. Власть. Убийство. Аминь.» - полностью характеризует безжалостную политику и сексуальную распущенность, которыми заполнились в истории папа римский Александр VI, в миру Родриго Борджиа, и члены его семьи.-
Качество видео: HDTVRip
Формат видео: AVI
Видео кодек: XviD
Аудио кодек: AC3
Видео: 688x384 (1.79:1), 23.976 fps, XviD build 50 ~1558 kbps avg, 0.25 bit/pixel
Аудио: 44.100 kHz, AC3 Dolby Digital, 2/0 (L,R) ch, ~383.59 kbps avg
Cубтитры: отсутствуют
General
Format : AVI
Format/Info : Audio Video Interleave
Overall bit rate : 1 951 Kbps
Writing application : VirtualDubMod 1.5.10.2 (build 2540/release)
Writing library : VirtualDubMod build 2540/release
Video
Format : MPEG-4 Visual
Format profile : Streaming [email protected]
Format settings, BVOP : Yes
Format settings, QPel : No
Format settings, GMC : No warppoints
Format settings, Matrix : Custom
Codec ID : XVID
Codec ID/Hint : XviD
Duration : 52mn 56s
Bit rate : 1 559 Kbps
Width : 688 pixels
Height : 384 pixels
Display aspect ratio : 16/9
Frame rate : 23.976 fps
Resolution : 24 bits
Colorimetry : 4:2:0
Scan type : Progressive
Bits/(Pixel*Frame) : 0.246
Stream size : 590 MiB (80%)
Writing library : XviD 1.2.1 (UTC 2008-12-04)
Audio
Format : AC-3
Format/Info : Audio Coding 3
Codec ID : 2000
Duration : 52mn 56s
Bit rate mode : Constant
Bit rate : 384 Kbps
Channel(s) : 2 channels
Channel positions : L R
Sampling rate : 44.1 KHz
Stream size : 145 MiB (20%)
Alignment : Split accross interleaves
Interleave, duration : 42 ms (1.00 video frame)
Interleave, preload duration : 499 ms
Download / Скачать

Хотите скачать бесплатно? Зарегистрируйтесь на сайте (ссылка на регистрацию). Pirat.ca - самый быстрый торрент трекер в рунете!

Как скачивать  ·   Что такое торрент  ·   Рейтинг и ограничения

Пост 15-Сен-2012 15:19 (спустя 1 час 13 минут)

Топик был перенесен из форума Зарубежные сериалы (Трюм) в форум Зарубежные сериалы

Андря
 

jofrei53

Корсар

Пост 25-Апр-2015 21:38 (спустя 2 года 7 месяцев)

[Q] 

Спасибо! Классный сериал... Супер! Автору респект!!!
[Профиль]  [ЛС] 

johndow

Штурман

Пост 04-Май-2015 00:03 (спустя 8 дней)

[Q] 

кто нибудь встаньте на раздачу
[Профиль]  [ЛС] 

Al148 ®

Штурман

432

Пост 12-Авг-2015 12:09 (спустя 3 месяца 8 дней)

[Q] 

вернулся на раздачу...качайте кому нужно!
Всем качать!!!

_________________

[Профиль]  [ЛС] 
Показать сообщения:    
Ответить на тему

Текущее время: Сегодня 13:31

Часовой пояс: GMT + 4



Вы не можете начинать темы
Вы не можете отвечать на сообщения
Вы не можете редактировать свои сообщения
Вы не можете удалять свои сообщения
Вы не можете голосовать в опросах
Вы не можете прикреплять файлы к сообщениям
Вы не можете скачивать файлы

▼ Вниз