ML
     
  Уважаемый Гость!
Вы можете поддержать проект и зарегистрироваться у наших партнеров - онлайн-стратегия MyLands. При регистрации в игре Вы получите код, который сможете активировать после регистрации на pirat.ca и получить 1000 дублонов.

Ваш код:
8dcb839cf1b47e56d6dc42d17f26b3e4822e9aee
 
     

Преступная империя / Boardwalk Empire (Сезон 3, Серии 12 из 12) (Тимоти Ван Паттен / Timothy Van Patten ...) [2012г., Драма, Криминал, WEB-DLRip] MVO (LostFilm)

Ответить на тему
 
Автор
Сообщение

Пост 26-Сен-2012 19:20

[Q] 

kugesan

Преступная империя
Boardwalk Empire

«Atlantic City, 1920. When alcohol was outlawed, outlaws became kings.»
- Русское название: Преступная империя
Оригинальное название: Boardwalk Empire
Страна: США
Год выпуска: 2012
Жанр: Драма, Криминал-Озвучка: Студия LostFilm
Перевод: Многоголосый закадровый, профессиональный-Режиссер: Тимоти Ван Паттен / Timothy Van Patten, Аллен Култер / Allen Coulter, Джереми Подесва / Jeremy Podeswa
Актеры: ЧАнна Катарина, Стив Бушеми, Майкл Питт, Тодд Фредерикс, Уильям Хилл, Джек Хьюстон, Николас Мартино, Пьер О”Фэррелл, Кен Следик, Ши Уигхэм-Описание фильма:
"Когда алкоголь был объявлен вне закона, преступники стали королями" 1920 год, Атлантик-Сити. После введения "сухого закона" организованная преступность в США получила богатое поле для деятельности. Городской казначей Атлантик-Сити, Енох "Наки" Томпсон создаёт свою преступную империю, налаживая каналы нелегального ввоза алкогольных напитков в сотрудничестве с криминальными структурами. Фильм снят по книге Нельсона Джонсона и основан на реальных событиях.-Сезон: 3
Серии: 12 из 12 серий
Продолжительность: ~00:59 мин. серия-Качество видео: WEB-DLRip
Формат: AVI
Видеокодек: XviD
Аудиокодек: Mp3
Видео: MPEG-4 Visual at 1230 Кбит/сек, 720 x 400 (1.800) at 23.976 fps
Аудио: MPEG Audio at 192 Кбит/сек, 2 канала, 48,0 КГц
- -
  • Обещание (Resolution)
  • Спагетти и кофе (Spaghetti and Coffee)
  • Боун фор туна (Bone for Tuna)
  • Мальчик-колокольчик (Blue Bell Boy)
  • Ты удивишься (You'd Be Surprised)
  • Гинг-гэнг-гули (Ging Gang Goolie)
  • Праздничный костюм (Sunday Best)
  • Пони (The Pony)
  • Блаженны нищие (The Milkmaid's Lot)
  • Уведи у вора... (A Man, a Plan...)
  • Двое вне закона (Two Imposters)
  • Пески Маргейта (Margate Sands)
-
Код:
Общее
Полное имя                               : D:\Торро\Сериалы\Преступная империя (Boardwalk Empire)\Boardwalk.Empire.S03.rus.LostFilm.TV\Boardwalk.Empire.S03E01.rus.LostFilm.TV.avi
Формат                                   : AVI
Формат/Информация                        : Audio Video Interleave
Размер файла                             : 609 Мбайт
Продолжительность                        : 59 м.
Режим общего битрейта                    : Переменный
Общий поток                              : 1432 Кбит/сек
Программа кодирования                    : Nandub v1.0rc2
Библиотека кодирования                   : Nandub build 1853/release
Видео
Идентификатор                            : 0
Формат                                   : MPEG-4 Visual
Профиль формата                          : [email protected]
Параметр BVOP формата                    : Нет
Параметр QPel формата                    : Нет
Параметр GMC формата                     : Без точки перехода
Параметр матрицы формата                 : Default (H.263)
Идентификатор кодека                     : XVID
Идентификатор кодека/Подсказка           : XviD
Продолжительность                        : 59 м.
Битрейт                                  : 1230 Кбит/сек
Ширина                                   : 720 пикселей
Высота                                   : 400 пикселей
Соотношение сторон                       : 16:9
Частота кадров                           : 23,976 кадра/сек
Цветовое пространство                    : YUV
Субдискретизация насыщенности            : 4:2:0
Битовая глубина                          : 8 бит
Тип развёртки                            : Прогрессивная
Метод сжатия                             : С потерями
Бит/(Пиксели*Кадры)                      : 0.178
Размер потока                            : 523 Мбайт (86%)
Библиотека кодирования                   : XviD 1.2.1 (UTC 2008-12-04)
Аудио
Идентификатор                            : 1
Формат                                   : MPEG Audio
Версия формата                           : Version 1
Профиль формата                          : Layer 3
Режим                                    : Joint stereo
Расширение режима                        : MS Stereo
Идентификатор кодека                     : 55
Идентификатор кодека/Подсказка           : MP3
Продолжительность                        : 59 м.
Вид битрейта                             : Переменный
Битрейт                                  : 192 Кбит/сек
Каналы                                   : 2 канала
Частота                                  : 48,0 КГц
Метод сжатия                             : С потерями
Размер потока                            : 80,4 Мбайт (13%)
Выравнивание                             : Соединение по промежуткам
Продолжительность промежутка             : 24  мс. (0,58 видеокадр)
Время предзагрузки промежутка            : 450  мс.
Библиотека кодирования                   : LAME3.97b
Настройки программы                      : -m j -V 4 -q 3 -lowpass 18.6 --abr
-
Внимание! Раздача ведётся путём добавления новых серий; при каждом добавлении создётся новый торрент. Чтобы начать докачку новой серии, пользователям необходимо сделать следующее:
(1) остановить скачивание,
(2) удалить старый торрент у себя из клиента (старые серии удалять не надо),
(3) скачать новый торрент и запустить его у себя в клиенте вместо старого, при этом указать клиенту путь в старую папку куда и должно происходить скачивание новых серий.
Ваш клиент при этом должен произвести хеширование (проверку) старой папки (если не производит сам - помогите ему сделать это), и будет докачивать только те серии которых у вас ещё нет. Старые серии при этом не удаляются, а продолжают раздаваться!
Eсли вы уже удалили старые серии, то предотвратить повторную закачку старых серий можно, отжав галочку в соответсвующих местах при запуске нового торрента.
-Скриншоты:
-
-Полный сезон
Download / Скачать

Хотите скачать бесплатно? Зарегистрируйтесь на сайте (ссылка на регистрацию). Pirat.ca - самый быстрый торрент трекер в рунете!

Как скачивать  ·   Что такое торрент  ·   Рейтинг и ограничения



Последний раз редактировалось: kugesan (2012-12-07 19:48), всего редактировалось 12 раз(а)

egor126

Гроза морей

Пост 26-Сен-2012 21:43 (спустя 2 часа 22 минуты)

[Q] 

[Профиль]  [ЛС] 

Пост 27-Сен-2012 00:02 (спустя 2 часа 18 минут)

Топик был перенесен из форума Зарубежные сериалы (Трюм) в форум Сериалы в эфире

Андря
 

kugesan ®

56718

Пост 27-Сен-2012 21:48 (спустя 1 день)

[Q] 

egor126,
Всегда пожалуйста. az

_________________

В мире две бесконечности: вселенная и человеческая глупость - Альберт Эйнштен
«Можно вытащить человека из грязи, но нельзя вытащить грязь из человека»!
[Профиль]  [ЛС] 

egor126

Гроза морей

Пост 28-Сен-2012 00:51 (спустя 3 часа)

[Q] 

Спасибо за 2-ю. Поддержу.
[Профиль]  [ЛС] 

kugesan ®

56718

Пост 04-Окт-2012 11:50 (спустя 6 дней)

[Q] 

egor126,
Спасибо :)

_________________

В мире две бесконечности: вселенная и человеческая глупость - Альберт Эйнштен
«Можно вытащить человека из грязи, но нельзя вытащить грязь из человека»!
[Профиль]  [ЛС] 

mazda956

Штурман

Пост 12-Окт-2012 23:24 (спустя 8 дней)

[Q] 

отличный сериал
[Профиль]  [ЛС] 

kugesan ®

56718

Пост 17-Окт-2012 21:03 (спустя 4 дня)

[Q] 

mazda956,
Абсолютно согласен)))

_________________

В мире две бесконечности: вселенная и человеческая глупость - Альберт Эйнштен
«Можно вытащить человека из грязи, но нельзя вытащить грязь из человека»!
[Профиль]  [ЛС] 

Пост 08-Дек-2012 00:48 (спустя 1 месяц 21 день)

Топик был перенесен из форума Сериалы в эфире в форум Зарубежные сериалы

gEmOkPaT
 

Elly_77

Морской Волк

Пост 19-Мар-2013 15:35 (спустя 5 месяцев 1 день)

[Q] 

[Профиль]  [ЛС] 

Sharkhunter

Морской Волк

39

Пост 17-Июл-2015 10:05 (спустя 2 года 3 месяца)

[Q] 

а нету в переводе nova-film?
[Профиль]  [ЛС] 

Maniac93

Корсар

Пост 29-Дек-2015 16:04 (спустя 5 месяцев 12 дней)

[Q] 

крутейший сериал! первые два сезона очень впечатлили, посмотрим как развинутся события в третьем! спасибо за раздачу!
[Профиль]  [ЛС] 
Показать сообщения:    
Ответить на тему

Текущее время: Сегодня 04:15

Часовой пояс: GMT + 4



Вы не можете начинать темы
Вы не можете отвечать на сообщения
Вы не можете редактировать свои сообщения
Вы не можете удалять свои сообщения
Вы не можете голосовать в опросах
Вы не можете прикреплять файлы к сообщениям
Вы не можете скачивать файлы

▼ Вниз