ML
     
  Уважаемый Гость!
Вы можете поддержать проект и зарегистрироваться у наших партнеров - онлайн-стратегия MyLands. При регистрации в игре Вы получите код, который сможете активировать после регистрации на pirat.ca и получить 1000 дублонов.

Ваш код:
8b752b428cf60a012c159dcae592cd1392170115
 
     

Теория Большого Взрыва / The Big bang Theory (Сезон: 6 / Серии: 1-9 из 24) (Марк Сендроуски, Питер Чакос / Mark Cendrowski, Peter Chakos) [2012 г., ситуационная комедия, HDRip, 720p] VO По версии Кураж-Бамбей

Страницы :  1, 2, 3  След.

Ответить на тему
 
Автор
Сообщение

Пост 02-Окт-2012 16:58

[Q] 

$ieJOKER

Гроза морей

-Теория Большого Взрыва / The Big bang Theory -- Производство: США CBS
Жанр: ситуационная комедия
Год выпуска: 2012 г.
Продолжительность: 00:21:07
Перевод: Любительский (одноголосый, закадровый)
Оригинальный аудиопоток: английский
Режиссер: Марк Сендроуски, Питер Чакос / Mark Cendrowski, Peter Chakos-В ролях: Джим Парсонс / Jim Parsons (Sheldon), Джонни Галекки / Johnny Galecki (Leonard), Кейли Куоко / Kaley Cuoco (Penny), Саймон Хельберг / Simon Helberg (Howard Wolowitz), Кунал Найяр / Kunal Nayyar (Rajesh Koothrappali)-Описание: Два блестящих физика, Леонард и Шелдон, «великие умы», которые понимают как «работает вселенная». Но их гениальность ничуть не помогает им общаться с людьми, особенно с женщинами. Всё начинает меняться, когда напротив них поселяется красавица Пенни. Когда Леонард и Шелдон встречают Пенни, Леонард сразу же начинает интересоваться ею. Он видит в общении с Пенни огромную перспективу… вплоть до любви, однако Шелдон понимает, что мечтам его друга не суждено сбыться. Стоит также отметить пару странных друзей этих физиков: Воловиц, который любит употреблять фразы на разных языках, включая русский, и Раджеш Кутраппали, теряющий дар речи при виде женщин.-
Качество видео: HDRip
Формат видео: MP4
Стандарт разрешения: 720p
Видео кодек: AVC
Аудио кодек: AAC
Видео: 1280 x 720 (16:9) 1 690 Kbps 23.976 fps
Аудио: 128 Kbps 2 channels 44.1 KHz
Cубтитры: отсутствуют
Имя файла: 1 Серия.720.mp4
Формат файла: .mp4 (MPEG-4)
Размер файла: 275.26 MB
Длительность: 21mn 7s
Навигация по главам: Нет
Bitrate (все потоки): 1 822 Kbps
Тип битрейта (все потоки): Variable
...при помощи: Lavf52.40.0
Название: 1 Серия.720
Тип потока: Видео
Длительность: 00:21:07
Кодек: AVC
Кодек/Профиль: [email protected]
Кодек/ID: avc1
Размеры изображения: 1280 x 720 (16:9)
Частота кадров: 23.976 fps
Частота кадров/мин: 8.333 fps
Частота кадров/макс: 25.000 fps
Частота кадров/Режим: Variable
Размер потока: 255 MiB (93%)
Битрейт: 1 690 Kbps
Цветовое пространство: YUV
Тип развёртки: Progressive
Bits/(Pixel*Frame): 0.076
Глубина пикселя: 8 bits
Библиотека кодирования: x264 core 79
Настройки кодирования: cabac=1 / ref=3 / deblock=1:0:0 / analyse=0x3:0x113 / me=hex / subme=7 / psy=1 / psy_rd=1.0:0.0 / mixed_ref=1 / me_range=16 / chroma_me=1 / trellis=1 / 8x8dct=1 / cqm=0 / deadzone=21,11 / chroma_qp_offset=-2 / threads=24 / nr=0 / decimate=1 / mbaff=0 / constrained_intra=0 / bframes=3 / b_pyramid=0 / b_adapt=1 / b_bias=0 / direct=1 / wpredb=32 / wpredp=2 / keyint=250 / keyint_min=25 / scenecut=40 / rc_lookahead=40 / rc=abr / mbtree=1 / bitrate=1800 / ratetol=2.2 / qcomp=0.60 / qpmin=10 / qpmax=51 / qpstep=4 / ip_ratio=1.41 / aq=1:1.00
Тип потока: Звук #1
Длительность: 00:21:07.183
Кодек: AAC
Кодек/ID: 40
Частота дискретизации: 44.1 KHz
Каналы: 2 channels
Каналы/позиция: Front: L R
Битрейт: 128 Kbps
Тип битрейта: Variable
Размер потока: 19.3 MiB (7%)
Язык: Russian
Торрент обновлен, добавлена 9 серия.
Приятного просмотра.
Download / Скачать

Хотите скачать бесплатно? Зарегистрируйтесь на сайте (ссылка на регистрацию). Pirat.ca - самый быстрый торрент трекер в рунете!

Как скачивать  ·   Что такое торрент  ·   Рейтинг и ограничения



Последний раз редактировалось: $ieJOKER (2012-12-11 16:09), всего редактировалось 24 раз(а)

-B1ack-

1884

Пост 02-Окт-2012 18:39 (спустя 1 час 41 минута)

[Q] 

$ieJOKER
спасибо ждал =) сериал угарный и + спасибо качество,ps ром в трюме az

_________________
[Профиль]  [ЛС] 

Sergenium

Лоцман

5

Пост 03-Окт-2012 08:51 (спустя 14 часов)

[Q] 

Спасибо, выручил, лень регистрироваться на сайте куража.
[Профиль]  [ЛС] 

$ieJOKER ®

Гроза морей

2333

Пост 03-Окт-2012 13:46 (спустя 4 часа)

[Q] 

237064лень регистрироваться на сайте куража.
там у них вечные проблемы с файлообменниками, к примеру на депозите файл удалили

_________________
Раздачи веду до первых сидов.
[Профиль]  [ЛС] 

TylerKy

Лоцман

Пост 03-Окт-2012 18:16 (спустя 4 часа)

[Q] 

Спасибо. Ждал выхода этого сериала .

_________________
\/\/ ....Мега чел.... \/\/
[Профиль]  [ЛС] 

Муравей

Корсар

Пост 04-Окт-2012 00:38 (спустя 6 часов)

[Q] 

Ух-ты! А я и не ожидал
[Профиль]  [ЛС] 

Ramze

Лоцман

Пост 05-Окт-2012 08:06 (спустя 1 день 7 часов)

[Q] 

А обновляться торрент будет с добавлением новых серий?
[Профиль]  [ЛС] 

$ieJOKER ®

Гроза морей

2333

Пост 06-Окт-2012 09:45 (спустя 1 день 1 час)

[Q] 

237981А обновляться торрент будет с добавлением новых серий?
будет

_________________
Раздачи веду до первых сидов.
[Профиль]  [ЛС] 

TylerKy

Лоцман

Пост 08-Окт-2012 23:55 (спустя 2 дня 14 часов)

[Q] 

dt Спасибо за 2 серию ))

_________________
\/\/ ....Мега чел.... \/\/
[Профиль]  [ЛС] 

w1975

Штурман

Пост 02-Ноя-2012 19:44 (спустя 24 дня)

[Q] 

[Профиль]  [ЛС] 

Shin

Лоцман

Пост 08-Ноя-2012 09:50 (спустя 5 дней)

[Q] 

[Профиль]  [ЛС] 

Biggs

Лоцман

Пост 08-Ноя-2012 14:20 (спустя 4 часа)

[Q] 

Спасибо !
[Профиль]  [ЛС] 

beetle

Морской Волк

Пост 12-Ноя-2012 20:31 (спустя 4 дня)

[Q] 

[Профиль]  [ЛС] 

vova_72

Штурман

Пост 14-Ноя-2012 00:37 (спустя 1 день 4 часа)

[Q] 

Ай молодца!Огромное спасибо за труды!
[Профиль]  [ЛС] 

xxxLOGICxxx

Корсар

Пост 14-Ноя-2012 09:40 (спустя 9 часов)

[Q] 

[Профиль]  [ЛС] 

PingWIN

Лоцман

Пост 14-Ноя-2012 19:10 (спустя 9 часов)

[Q] 

Спасибо большое! Так держать! А то правообладатели уже задолбали!
[Профиль]  [ЛС] 

$ieJOKER ®

Гроза морей

2333

Пост 14-Ноя-2012 21:31 (спустя 2 часа 20 минут)

[Q] 

PingWIN, Пираты ж

_________________
Раздачи веду до первых сидов.
[Профиль]  [ЛС] 

uran

Корсар

388

Пост 14-Ноя-2012 23:21 (спустя 1 час 50 минут)

[Q] 

[Профиль]  [ЛС] 

ruwam

Морской Волк

Пост 14-Ноя-2012 23:24 (спустя 2 минуты)

[Q] 

спасибо
[Профиль]  [ЛС] 

pivonet

Лоцман

Пост 17-Ноя-2012 23:02 (спустя 2 дня 23 часа)

[Q] 

Зачем-то рекламу впихнули.
[Профиль]  [ЛС] 

$ieJOKER ®

Гроза морей

2333

Пост 18-Ноя-2012 10:59 (спустя 11 часов)

[Q] 

pivonet, это потому что собирались серии с просторов интернета(

_________________
Раздачи веду до первых сидов.
[Профиль]  [ЛС] 

damny

Лоцман

Пост 18-Ноя-2012 13:18 (спустя 2 часа 19 минут)

[Q] 

Спасибо за раздачу)
А у тебя есть возможность добавлять новые серии каждый четверг, сразу после выхода, ну или хотя бы по пятницам?
[Профиль]  [ЛС] 

$ieJOKER ®

Гроза морей

2333

Пост 18-Ноя-2012 14:56 (спустя 1 час 38 минут)

[Q] 

damny, серии добавляю по возможности но скорей всего сразу как переведет кураж.

_________________
Раздачи веду до первых сидов.
[Профиль]  [ЛС] 

Честер

Морской Волк

78

Пост 19-Ноя-2012 00:32 (спустя 9 часов)

[Q] 

[Профиль]  [ЛС] 

Daitin

Морской Волк

Пост 19-Ноя-2012 03:32 (спустя 3 часа)

[Q] 

[Профиль]  [ЛС] 

Placsa69

Шкипер

Пост 19-Ноя-2012 12:39 (спустя 9 часов)

[Q] 

Спасибо aa
[Профиль]  [ЛС] 

anton777

Шкипер

215

Пост 19-Ноя-2012 13:27 (спустя 48 минут)

[Q] 

[Профиль]  [ЛС] 

SARFEX

Лоцман

Пост 19-Ноя-2012 22:37 (спустя 9 часов)

[Q] 

ппц это же не 720, а растянутый dvd-rip
[Профиль]  [ЛС] 

$ieJOKER ®

Гроза морей

2333

Пост 19-Ноя-2012 22:49 (спустя 12 минут)

[Q] 

265985ппц это же не 720, а растянутый dvd-rip
иногда косяки но не везде же.
сейчас проблемы с машиной, как починю поправлю места косяков...

_________________
Раздачи веду до первых сидов.
[Профиль]  [ЛС] 

zverek666

Лоцман

Пост 23-Ноя-2012 01:24 (спустя 3 дня)

[Q] 

[Профиль]  [ЛС] 
Показать сообщения:    
Ответить на тему

Текущее время: Сегодня 06:22

Часовой пояс: GMT + 4



Вы не можете начинать темы
Вы не можете отвечать на сообщения
Вы не можете редактировать свои сообщения
Вы не можете удалять свои сообщения
Вы не можете голосовать в опросах
Вы не можете прикреплять файлы к сообщениям
Вы не можете скачивать файлы

▼ Вниз