ML
     
  Уважаемый Гость!
Вы можете поддержать проект и зарегистрироваться у наших партнеров - онлайн-стратегия MyLands. При регистрации в игре Вы получите код, который сможете активировать после регистрации на pirat.ca и получить 1000 дублонов.

Ваш код:
2932e5898d0a27592397f70b82a5834d1e70ea19
 
     

Уэйуорд Пайнс / Wayward Pines / Сезон: 1 / Полный / Серии: 10 из 10 (Зал Батманглидж / Zal Batmanglij, ...) [2015 г., драма, детектив, WEBDLRip] MVO (LostFilm)

Ответить на тему
 
Автор
Сообщение

Пост 02-Окт-2012 22:36

[Q] 

kugesan

-Уэйуорд Пайнс / Wayward Pines -- Производство: США
Жанр: драма, детектив, ...
Год выпуска: 2015 г.-Мировая премьера: 14 мая 2015 ...
Российская премьера: 14 мая 2015-Озвучка: Студия
Перевод: Многоголосый закадровый, профессиональный-Режиссер: Зал Батманглидж / Zal Batmanglij, Тим Хантер / Tim Hunter, Нимрод Антал / Nimród Antal, ...-В ролях: Мэтт Диллон, Терренс Ховард, Грета Ли, Мелисса Лео, Шаннин Соссамон, Брюс Блэйн, Айден Чан Арнольд, Шиван Фэллон, Тим Гриффин, Карла Гуджино ...-Описание:
Агент секретной службы Итан Берк приезжает в пасторальный городок Уэйуорд Пайнс в Айдахо, чтобы найти двух пропавших фэбээровцев. Но расследование вместо ответов приносит лишь новые вопросы. Что же происходит в Уэйуорд Пайнс?-Сезон: 1
Серии: 10 из 10 серий
Продолжительность: ~ 00:44:00 мин серия-
Качество видео: WEBDLRip
Контейнер: AVI
Видео кодек: XviD
Аудио кодек: MP3
Видео: MPEG-4 Visual at 1277 Кбит/сек: 720 x 400 (1.800) at 23.976 fps: 0.18 Бит/Пиксели
Аудио Rus: MPEG Audio at 192 Кбит/сек: 2 канала, 48,0 КГц |LostFilm|
Cубтитры: отсутствуют
- -
  • Здесь дома, как в раю (Where Paradise Is Home)
  • Прошлую жизнь не обсуждать (Do Not Discuss Your Life Before)
  • Наш город, наши правила (Our Town, Our Law)
  • Один из старших риэлторов решил уйти на покой (One of Our Senior Realtors Has Chosen to Retire)
  • Истина (The Truth)
  • Выбор (Choices)
  • Предательство (Betrayal)
  • Самый дружелюбный город Земли (The Friendliest Place on Earth)
  • Расплата (A Reckoning)
  • Цикл (Cycle)
-
Общее
Полное имя : E:\_Сериалы\_Сериалы\Уэйворд Пайнс\Wayward Pines 1 - LostFilm.TV\Wayward.Pines.S01E01.rus.LostFilm.TV.avi
Формат : AVI
Формат/Информация : Audio Video Interleave
Размер файла : 466 Мбайт
Продолжительность : 44 м.
Режим общего битрейта : Переменный
Общий поток : 1478 Кбит/сек
Программа кодирования : Nandub v1.0rc2
Библиотека кодирования : Nandub build 1853/release
Видео
Идентификатор : 0
Формат : MPEG-4 Visual
Профиль формата : Advanced [email protected]
Параметр BVOP формата : Нет
Параметр QPel формата : Нет
Параметр GMC формата : Без точки перехода
Параметр матрицы формата : Default (H.263)
Идентификатор кодека : XVID
Идентификатор кодека/Подсказка : XviD
Продолжительность : 44 м.
Битрейт : 1277 Кбит/сек
Ширина : 720 пикселей
Высота : 400 пикселей
Соотношение сторон : 16:9
Частота кадров : 23,976 кадра/сек
Цветовое пространство : YUV
Субдискретизация насыщенности : 4:2:0
Битовая глубина : 8 бит
Тип развёртки : Прогрессивная
Метод сжатия : С потерями
Бит/(Пиксели*Кадры) : 0.185
Размер потока : 403 Мбайт (86%)
Библиотека кодирования : XviD 1.2.1 (UTC 2008-12-04)
Аудио
Идентификатор : 1
Формат : MPEG Audio
Версия формата : Version 1
Профиль формата : Layer 3
Режим : Joint stereo
Расширение режима : MS Stereo
Идентификатор кодека : 55
Идентификатор кодека/Подсказка : MP3
Продолжительность : 44 м.
Вид битрейта : Переменный
Битрейт : 192 Кбит/сек
Каналы : 2 канала
Частота : 48,0 КГц
Метод сжатия : С потерями
Размер потока : 59,4 Мбайт (13%)
Выравнивание : Соединение по промежуткам
Продолжительность промежутка : 24 мс. (0,58 видеокадр)
Время предзагрузки промежутка : 489 мс.
Библиотека кодирования : LAME3.97b
Настройки программы : -m j -V 4 -q 3 -lowpass 18.6 --abr 192
-
-Скриншоты:
-
-
1. Открыть торрент
2. Снять галки с тех файлов торрента, которые мы не хотим закачивать. Оставляем только на нужных нам файлах (файле).
3. Нажать О.К.
В клиенте utorrent
Инструкция
1) Открыть торрент

2) Снять галки с тех файлов торрента, которые мы не хотим закачивать:
* либо вручную, снимая с каждого файла галку( скрин №1)
* либо, нажав кнопку "Снять метки (Select None)", сняв сразу со всех файлов(скрин №2)
№1

№2

Оставляем только на нужных нам файлах (файле).

3)Нажать О.К
Добавлена десятая, заключительная, серия первого сезона
Download / Скачать

Хотите скачать бесплатно? Зарегистрируйтесь на сайте (ссылка на регистрацию). Pirat.ca - самый быстрый торрент трекер в рунете!

Как скачивать  ·   Что такое торрент  ·   Рейтинг и ограничения



Последний раз редактировалось: kugesan (2015-07-25 23:56), всего редактировалось 27 раз(а)

Dexter

Лоцман

Пост 17-Май-2015 14:40 (спустя 2 года 7 месяцев)

[Q] 

Дайте скорости)
[Профиль]  [ЛС] 

kugesan ®

56676

Пост 25-Июл-2015 23:57 (спустя 2 месяца 8 дней)

[Q] 

Добавлена десятая, заключительная, серия первого сезона

_________________

В мире две бесконечности: вселенная и человеческая глупость - Альберт Эйнштен
«Можно вытащить человека из грязи, но нельзя вытащить грязь из человека»!
[Профиль]  [ЛС] 

a_barat

Гроза морей

3249

Пост 26-Июл-2015 13:31 (спустя 13 часов)

[Q] 

Наконец-то!!!!!!!! Спасибо, бро!!!
Автору респект!!!
Лови бочку

_________________
This message represents an official view of the voices in my head af
[Профиль]  [ЛС] 

kugesan ®

56676

Пост 26-Июл-2015 14:33 (спустя 1 час 1 минута)

[Q] 

Приятного просмотра!!!

_________________

В мире две бесконечности: вселенная и человеческая глупость - Альберт Эйнштен
«Можно вытащить человека из грязи, но нельзя вытащить грязь из человека»!
[Профиль]  [ЛС] 
Показать сообщения:    
Ответить на тему

Текущее время: Сегодня 07:59

Часовой пояс: GMT + 4



Вы не можете начинать темы
Вы не можете отвечать на сообщения
Вы не можете редактировать свои сообщения
Вы не можете удалять свои сообщения
Вы не можете голосовать в опросах
Вы не можете прикреплять файлы к сообщениям
Вы не можете скачивать файлы

▼ Вниз