ML
     
  Уважаемый Гость!
Вы можете поддержать проект и зарегистрироваться у наших партнеров - онлайн-стратегия MyLands. При регистрации в игре Вы получите код, который сможете активировать после регистрации на pirat.ca и получить 1000 дублонов.

Ваш код:
0ea1bf889af42fca5f67d0a391efb3400850ad7c
 
     

Родина / Homeland (Сезон 2, Серии 12 из 12) (Майкл Куэста / Michael Cuesta ...) [2012г., Триллер, драма, криминал, детектив, HDTV-Rip] MVO (LostFilm)

Ответить на тему
 
Автор
Сообщение

Пост 04-Окт-2012 12:45

[Q] 

kugesan

Родина
Homeland

«The nation sees a hero. She sees a threat.»
- Русское название: Родина
Оригинальное название:Homeland
Страна: США
Год выпуска: 2012
Жанр: Триллер, драма, криминал, детектив-Озвучка: Студия LostFilm
Перевод: Многоголосый закадровый, профессиональный-Режиссер: Майкл Куэста / Michael Cuesta, Дэниэл / Эттиэс Daniel Attias, Кларк Джонсон / Clark Johnson ...
Актеры: Клэр Дэйнс, Дамиан Льюис, Морена Баккарин, Дэвид Хэрвуд, Диего Клаттенхофф, Джексон Паке, Моргон Сэйлор, Мэнди Пэтинкин, Дэвид Марсиано, Навид Негабан ...-Описание фильма:
Николас Броди (Дамиан Льюис) — сержант морской пехоты, который возвращается домой после восьми лет плена в Ираке, а Кэрри Андерсон (Клэр Дэйнс), офицер ЦРУ, которая подозревает, что Броди ведет двойную игру и планирует теракт.-Сезон: 2
Серии: 12 из 12 серий
Продолжительность: ~ 00:55:00 мин серия-Качество видео: HDTV-Rip
Формат: AVI
Видеокодек: XviD
Аудиокодек: Mp3
Видео: MPEG-4 Visual at 1312 Кбит/сек, 720 x 400 (1.800) at 23.976 fps
Аудио: MPEG Audio at 128 Кбит/сек, 2 канала, 48,0 КГц
- -
  • Улыбка (The Smile)
  • Снова Бейрут (Beirut Is Back)
  • Штат независимости (State of Independence)
  • Запах новой машины (New Car Smell)
  • Вопросы и ответы (Q&A)
  • Адрес в Геттисбурге (A Gettysburg Address)
  • Поляна (The Clearing)
  • Улечу я далеко (I'll Fly Away)
  • Совместитель (Two Hats)
  • Разбитые сердца (Broken Hearts)
  • Светлая память (In Memoriam)
  • Выбор (The Choice)
-
Код:
Общее
Полное имя                               : D:\Торро\Сериалы\Родина (Homeland)\Homeland.S02.rus.LostFilm\Homeland.S02E01.rus.LostFilm.TV.avi
Формат                                   : AVI
Формат/Информация                        : Audio Video Interleave
Размер файла                             : 581 Мбайт
Продолжительность                        : 55 м.
Общий поток                              : 1453 Кбит/сек
Программа кодирования                    : Nandub v1.0rc2
Библиотека кодирования                   : Nandub build 1853/release
Видео
Идентификатор                            : 0
Формат                                   : MPEG-4 Visual
Профиль формата                          : [email protected]
Параметр BVOP формата                    : Нет
Параметр QPel формата                    : Нет
Параметр GMC формата                     : Без точки перехода
Параметр матрицы формата                 : Default (H.263)
Идентификатор кодека                     : XVID
Идентификатор кодека/Подсказка           : XviD
Продолжительность                        : 55 м.
Битрейт                                  : 1312 Кбит/сек
Ширина                                   : 720 пикселей
Высота                                   : 400 пикселей
Соотношение сторон                       : 16:9
Частота кадров                           : 23,976 кадра/сек
Цветовое пространство                    : YUV
Субдискретизация насыщенности            : 4:2:0
Битовая глубина                          : 8 бит
Тип развёртки                            : Прогрессивная
Метод сжатия                             : С потерями
Бит/(Пиксели*Кадры)                      : 0.190
Размер потока                            : 525 Мбайт (90%)
Библиотека кодирования                   : XviD 1.2.1 (UTC 2008-12-04)
Аудио
Идентификатор                            : 1
Формат                                   : MPEG Audio
Версия формата                           : Version 1
Профиль формата                          : Layer 3
Режим                                    : Joint stereo
Расширение режима                        : MS Stereo
Идентификатор кодека                     : 55
Идентификатор кодека/Подсказка           : MP3
Продолжительность                        : 55 м.
Вид битрейта                             : Постоянный
Битрейт                                  : 128 Кбит/сек
Каналы                                   : 2 канала
Частота                                  : 48,0 КГц
Метод сжатия                             : С потерями
Размер потока                            : 51,2 Мбайт (9%)
Выравнивание                             : Соединение по промежуткам
Продолжительность промежутка             : 24  мс. (0,58 видеокадр)
Время предзагрузки промежутка            : 480  мс.
-Скриншоты:
-
-Полный сезон
Download / Скачать

Хотите скачать бесплатно? Зарегистрируйтесь на сайте (ссылка на регистрацию). Pirat.ca - самый быстрый торрент трекер в рунете!

Как скачивать  ·   Что такое торрент  ·   Рейтинг и ограничения



Последний раз редактировалось: kugesan (2016-01-13 12:13), всего редактировалось 17 раз(а)

egor126

Гроза морей

Пост 04-Окт-2012 16:52 (спустя 4 часа)

[Q] 

Спасибо. Поддержу.
[Профиль]  [ЛС] 

kugesan ®

56648

Пост 18-Окт-2012 18:02 (спустя 14 дней)

[Q] 

egor126,
Спасибо за поддержку))

_________________

В мире две бесконечности: вселенная и человеческая глупость - Альберт Эйнштен
«Можно вытащить человека из грязи, но нельзя вытащить грязь из человека»!
[Профиль]  [ЛС] 

Дядя Витя

53894

Пост 29-Ноя-2012 18:32 (спустя 1 месяц 11 дней)

[Q] 


_________________
?
[Профиль]  [ЛС] 

emperor

Лоцман

Пост 20-Авг-2013 19:22 (спустя 8 месяцев 21 день)

[Q] 

сидов 0
[Профиль]  [ЛС] 

Mitriadis

Лоцман

Пост 25-Авг-2014 15:46 (спустя 1 год)

[Q] 

Качну и пораздаю подольше. Ради хорошего сериала не жалко
[Профиль]  [ЛС] 

Victorsalata

Корсар

Пост 04-Фев-2015 14:12 (спустя 5 месяцев 9 дней)

[Q] 

Интересный сезон. Советую смотреть.
[Профиль]  [ЛС] 

янка-сан

Гроза морей

Пост 18-Дек-2015 20:29 (спустя 10 месяцев 14 дней)

[Q] 

супер! рекомендую Лови бочку
[Профиль]  [ЛС] 

Tepemok

Мичман

Пост 13-Янв-2016 00:26 (спустя 25 дней)

[Q] 

Скорость как у черепахи сиды!ауууууу
[Профиль]  [ЛС] 

Hypsea3

Шкипер

Пост 13-Янв-2016 12:52 (спустя 12 часов)

[Q] 

Сейчас встаю на раздачу! Спасибо
[Профиль]  [ЛС] 

WC

Штурман

Пост 18-Фев-2016 23:53 (спустя 1 месяц 5 дней)

[Q] 

Помогите пожалуйста первый сезон найти bc Кто здеся?
[Профиль]  [ЛС] 

Хока34

Морской Волк

Пост 29-Мар-2016 10:56 (спустя 1 месяц 10 дней)

[Q] 

Повстречал этот сериал только в конце прошлого года.До этого он как то не попадался.
Уже наснимали пять сезонов.По-моему все сериалы с рэйтингом более 8 смотреть интересней чем полнометражные кина.
Спасибо!!! Всем качать!!!
[Профиль]  [ЛС] 
Показать сообщения:    
Ответить на тему

Текущее время: Сегодня 00:38

Часовой пояс: GMT + 4



Вы не можете начинать темы
Вы не можете отвечать на сообщения
Вы не можете редактировать свои сообщения
Вы не можете удалять свои сообщения
Вы не можете голосовать в опросах
Вы не можете прикреплять файлы к сообщениям
Вы не можете скачивать файлы

▼ Вниз