ML
     
  Уважаемый Гость!
Вы можете поддержать проект и зарегистрироваться у наших партнеров - онлайн-стратегия MyLands. При регистрации в игре Вы получите код, который сможете активировать после регистрации на pirat.ca и получить 1000 дублонов.

Ваш код:
a978488e62322cd72e113ab723b8a7fdc10eb9b9
 
     

Терра Нова / Terra Nova Сезон: 1 / Серии: 1-13 (13) (Алекс Грейвз) [2011 г., драма, фантастика, HDTV 720p 59,94 fps] (DD 5.1 Первый канал) rus eng sub

Ответить на тему
 
Автор
Сообщение

Пост 12-Дек-2011 18:09

[Q] 

djafart800

Терра Нова / Terra Nova (Сезон: 1 / Серии: 1-13 из 13)
Год выпуска: 2011
Страна: США
Жанр: драма, фантастика
Продолжительность: ~ 40 мин
Перевод: Профессиональный (многоголосый, закадровый)
Режиссер: Алекс Грейвз
В ролях: Джейсон О’Мара, Кристин Адамс, Байрон Дж. Брочманн, Джоэль Амос Бернс, Джейсон Чонг, Шелли Конн, Эка Дарвилл, Айша Ди, Дин Гейер, Мидо Хамада, Симона Кессель, Стивен Лэнг, Лэндон Лбуарон, Эллисон Миллер, Дэн Мор, Сэм Парсонсон, Роми Полье, Тоня Рени, Наоми Скотт, Валентино Дель Торо, Дэмиан Уолш-Хаулинг, Лаура Уитнолл и др.
Описание: 2149 год. Земля перенаселена. Большинство растений и животных уже исчезли с её лица. Будущее человечества под сомнением, единственную надежду на выживание ученые видят в прошлом. Неожиданно обнаруженный ими пространственно-временной портал позволяет претворить в жизнь самый смелый план – переселить людей на 85 миллионов лет назад с целью повторного восстановления цивилизации. Семье Шеннонов выпадает честь присоединиться к десятому паломничеству переселенцев на Тerra Nova.
Доп. информация: Русская звуковая дорожка сделана путем наложения чистого голоса озвучивателей на центральный канал оригинальной дорожки. Качество идентично английской звуковой дорожке.
Кинопоиск
Качество: HDTV
Формат: MKV
Видео кодек: MPEG2
Аудио кодек: AC3
Видео: MPEG2 / 1280x720p / 59.940 fps / ~14.1 Mbps / 0.254 bit/pixe
Аудио 1: Russian: Dolby Digital 5.1; 48 kHz; 448 kbps (Первый канал)
Аудио 1: English: Dolby Digital 5.1; 48 kHz; 448 kbps
Субтитры: русские, английские (Notabenoid)


Эпизод 01-02 — Происхождение: Части 1 и 2 (Genesis: Pt 1&2)
Эпизод 03 — Инстинкт (Instinct)
Эпизод 04 — То, что осталось (What remains)
Эпизод 05 — Побег (The Runaway)
Эпизод 06 — Устав (Bylaw)
Эпизод 07 — Сумерки (Nightfall)
Эпизод 08 — Доказательство (Proof)
Эпизод 09 — Противостояния (Vs.)
Эпизод 10 — Теперь ты меня видишь (Now You See Me)
Эпизод 11 — Внутри (Within)
Общее
Уникальный идентификатор : 236369085005507740985549629612396358039 (0xB1D307A5D1BE8FE2971A2D2EA62FA997)
Полное имя : D:\Фильмы\Сериалы\Terra nova HDTV 720p 59,94 fps 5.1\Terra.Nova.S01.720p.HDTV.DD5.1.MPEG2-CEZAR\Terra.Nova.S01E01.720p.HDTV.DD5.1.MPEG2-CEZAR.mkv
Формат : Matroska
Версия формата : Version 2
Размер файла : 9,20 Гбайт
Продолжительность : 1 ч. 25 м.
Режим общего битрейта : Переменный
Общий поток : 15,3 Мбит/сек
Дата кодирования : UTC 2011-09-29 21:19:12
Программа кодирования : mkvmerge v3.0.0 ('Hang up your Hang-Ups') built on Dec 12 2009 15:20:35
Библиотека кодирования : libebml v0.7.9 + libmatroska v0.8.1
Видео
Идентификатор : 1
Формат : MPEG Video
Версия формата : Version 2
Профиль формата : [email protected]
Параметр BVOP формата : Да
Параметр матрицы формата : По умолчанию
Идентификатор кодека : V_MPEG2
Идентификатор кодека/Информация : MPEG 1 or 2 Video
Продолжительность : 1 ч. 25 м.
Вид битрейта : Переменный
Битрейт : 14,1 Мбит/сек
Максимальный битрейт : 38,8 Мбит/сек
Ширина : 1280 пикселей
Высота : 720 пикселей
Соотношение сторон : 16:9
Active Format Description : Letterbox 16:9 image
Частота кадров : 59,940 кадров/сек
Цветовое пространство : YUV
Субдискретизация насыщенности : 4:2:0
Битовая глубина : 8 бит
Тип развёртки : Прогрессивная
Метод сжатия : С потерями
Бит/(Пиксели*Кадры) : 0.256
Размер потока : 8,48 Гбайт (92%)
Default : Да
Forced : Нет
Аудио #1
Идентификатор : 2
Формат : AC-3
Формат/Информация : Audio Coding 3
Расширение режима : CM (complete main)
Идентификатор кодека : A_AC3
Продолжительность : 1 ч. 25 м.
Вид битрейта : Постоянный
Битрейт : 448 Кбит/сек
Каналы : 6 каналов
Расположение каналов : Front: L C R, Side: L R, LFE
Частота : 48,0 КГц
Битовая глубина : 16 бит
Метод сжатия : С потерями
Размер потока : 275 Мбайт (3%)
Заголовок : 1 Chanel
Язык : Russian
Default : Да
Forced : Нет
Аудио #2
Идентификатор : 3
Формат : AC-3
Формат/Информация : Audio Coding 3
Расширение режима : CM (complete main)
Идентификатор кодека : A_AC3
Продолжительность : 1 ч. 25 м.
Вид битрейта : Постоянный
Битрейт : 448 Кбит/сек
Каналы : 6 каналов
Расположение каналов : Front: L C R, Side: L R, LFE
Частота : 48,0 КГц
Битовая глубина : 16 бит
Метод сжатия : С потерями
Размер потока : 275 Мбайт (3%)
Язык : English
Default : Нет
Forced : Нет
Текст #1
Идентификатор : 4
Формат : UTF-8
Идентификатор кодека : S_TEXT/UTF8
Идентификатор кодека/Информация : UTF-8 Plain Text
Язык : Russian
Default : Нет
Forced : Нет
Текст #2
Идентификатор : 5
Формат : UTF-8
Идентификатор кодека : S_TEXT/UTF8
Идентификатор кодека/Информация : UTF-8 Plain Text
Язык : English
Default : Нет
Forced : Нет
Меню
00:00:00.000 : en:Chapter 1
00:17:31.811 : en:Chapter 2
00:30:07.242 : en:Chapter 3
00:38:05.112 : en:Chapter 4
00:44:16.184 : en:Chapter 5
00:50:09.898 : en:Chapter 6
00:55:11.317 : en:Chapter 7
01:06:50.246 : en:Chapter 8
01:11:21.015 : en:Chapter 9
01:19:47.328 : en:Chapter 10
01:25:07.029 : en:Chapter 11
Общее
Уникальный идентификатор : 206118133652161098523918164230185590106 (0x9B10E897ECC971DE8CD6CD07453A9D5A)
Полное имя : D:\Фильмы\Сериалы\Terra nova HDTV 720p 59,94 fps 5.1\Terra.Nova.S01.720p.HDTV.DD5.1.MPEG2-CEZAR\Terra.Nova.S01E03.720p.HDTV.DD5.1.MPEG2-CEZAR.mkv
Формат : Matroska
Версия формата : Version 2
Размер файла : 4,59 Гбайт
Продолжительность : 42 м.
Режим общего битрейта : Переменный
Общий поток : 15,4 Мбит/сек
Дата кодирования : UTC 2011-10-07 18:03:47
Программа кодирования : mkvmerge v3.0.0 ('Hang up your Hang-Ups') built on Dec 12 2009 15:20:35
Библиотека кодирования : libebml v0.7.9 + libmatroska v0.8.1
Видео
Идентификатор : 1
Формат : MPEG Video
Версия формата : Version 2
Профиль формата : [email protected]
Параметр BVOP формата : Да
Параметр матрицы формата : По умолчанию
Идентификатор кодека : V_MPEG2
Идентификатор кодека/Информация : MPEG 1 or 2 Video
Продолжительность : 42 м.
Вид битрейта : Переменный
Битрейт : 14,2 Мбит/сек
Максимальный битрейт : 38,8 Мбит/сек
Ширина : 1280 пикселей
Высота : 720 пикселей
Соотношение сторон : 16:9
Active Format Description : Letterbox 16:9 image
Частота кадров : 59,940 кадров/сек
Цветовое пространство : YUV
Субдискретизация насыщенности : 4:2:0
Битовая глубина : 8 бит
Тип развёртки : Прогрессивная
Метод сжатия : С потерями
Бит/(Пиксели*Кадры) : 0.257
Размер потока : 4,23 Гбайт (92%)
Default : Да
Forced : Нет
Аудио #1
Идентификатор : 2
Формат : AC-3
Формат/Информация : Audio Coding 3
Расширение режима : CM (complete main)
Идентификатор кодека : A_AC3
Продолжительность : 42 м.
Вид битрейта : Постоянный
Битрейт : 448 Кбит/сек
Каналы : 6 каналов
Расположение каналов : Front: L C R, Side: L R, LFE
Частота : 48,0 КГц
Битовая глубина : 16 бит
Метод сжатия : С потерями
Размер потока : 137 Мбайт (3%)
Заголовок : 1 Chanel
Язык : Russian
Default : Да
Forced : Нет
Аудио #2
Идентификатор : 3
Формат : AC-3
Формат/Информация : Audio Coding 3
Расширение режима : CM (complete main)
Идентификатор кодека : A_AC3
Продолжительность : 42 м.
Вид битрейта : Постоянный
Битрейт : 448 Кбит/сек
Каналы : 6 каналов
Расположение каналов : Front: L C R, Side: L R, LFE
Частота : 48,0 КГц
Битовая глубина : 16 бит
Метод сжатия : С потерями
Размер потока : 137 Мбайт (3%)
Язык : English
Default : Нет
Forced : Нет
Текст #1
Идентификатор : 4
Формат : UTF-8
Идентификатор кодека : S_TEXT/UTF8
Идентификатор кодека/Информация : UTF-8 Plain Text
Язык : Russian
Default : Нет
Forced : Нет
Текст #2
Идентификатор : 5
Формат : UTF-8
Идентификатор кодека : S_TEXT/UTF8
Идентификатор кодека/Информация : UTF-8 Plain Text
Язык : English
Default : Нет
Forced : Нет
Меню
00:00:00.000 : en:Chapter 1
00:09:31.748 : en:Chapter 2
00:16:51.168 : en:Chapter 3
00:24:30.962 : en:Chapter 4
00:29:55.144 : en:Chapter 5
00:35:43.968 : en:Chapter 6
00:42:03.980 : en:Chapter 7
Общее
Уникальный идентификатор : 206528532023117434564929819322680813903 (0x9B5FF2CB9C8FDF1CA1C5DB60023F294F)
Полное имя : D:\Фильмы\Сериалы\Terra nova HDTV 720p 59,94 fps 5.1\Terra.Nova.S01.720p.HDTV.DD5.1.MPEG2-CEZAR\Terra.Nova.S01E04.720p.HDTV.DD5.1.MPEG2-CEZAR.mkv
Формат : Matroska
Версия формата : Version 2
Размер файла : 4,75 Гбайт
Продолжительность : 43 м.
Режим общего битрейта : Переменный
Общий поток : 15,6 Мбит/сек
Дата кодирования : UTC 2011-10-12 02:59:04
Программа кодирования : mkvmerge v3.0.0 ('Hang up your Hang-Ups') built on Dec 12 2009 15:20:35
Библиотека кодирования : libebml v0.7.9 + libmatroska v0.8.1
Видео
Идентификатор : 1
Формат : MPEG Video
Версия формата : Version 2
Профиль формата : [email protected]
Параметр BVOP формата : Да
Параметр матрицы формата : По умолчанию
Идентификатор кодека : V_MPEG2
Идентификатор кодека/Информация : MPEG 1 or 2 Video
Продолжительность : 43 м.
Вид битрейта : Переменный
Битрейт : 14,4 Мбит/сек
Максимальный битрейт : 38,8 Мбит/сек
Ширина : 1280 пикселей
Высота : 720 пикселей
Соотношение сторон : 16:9
Active Format Description : Letterbox 16:9 image
Частота кадров : 59,940 кадров/сек
Цветовое пространство : YUV
Субдискретизация насыщенности : 4:2:0
Битовая глубина : 8 бит
Тип развёртки : Прогрессивная
Метод сжатия : С потерями
Бит/(Пиксели*Кадры) : 0.260
Размер потока : 4,38 Гбайт (92%)
Default : Да
Forced : Нет
Аудио #1
Идентификатор : 2
Формат : AC-3
Формат/Информация : Audio Coding 3
Расширение режима : CM (complete main)
Идентификатор кодека : A_AC3
Продолжительность : 43 м.
Вид битрейта : Постоянный
Битрейт : 448 Кбит/сек
Каналы : 6 каналов
Расположение каналов : Front: L C R, Side: L R, LFE
Частота : 48,0 КГц
Битовая глубина : 16 бит
Метод сжатия : С потерями
Размер потока : 140 Мбайт (3%)
Заголовок : 1 Chanel
Язык : Russian
Default : Да
Forced : Нет
Аудио #2
Идентификатор : 3
Формат : AC-3
Формат/Информация : Audio Coding 3
Расширение режима : CM (complete main)
Идентификатор кодека : A_AC3
Продолжительность : 43 м.
Вид битрейта : Постоянный
Битрейт : 448 Кбит/сек
Каналы : 6 каналов
Расположение каналов : Front: L C R, Side: L R, LFE
Частота : 48,0 КГц
Битовая глубина : 16 бит
Метод сжатия : С потерями
Размер потока : 140 Мбайт (3%)
Язык : English
Default : Нет
Forced : Нет
Текст #1
Идентификатор : 4
Формат : UTF-8
Идентификатор кодека : S_TEXT/UTF8
Идентификатор кодека/Информация : UTF-8 Plain Text
Язык : Russian
Default : Нет
Forced : Нет
Текст #2
Идентификатор : 5
Формат : UTF-8
Идентификатор кодека : S_TEXT/UTF8
Идентификатор кодека/Информация : UTF-8 Plain Text
Язык : English
Default : Нет
Forced : Нет
Меню
00:00:00.000 : en:Chapter 1
00:09:45.504 : en:Chapter 2
00:16:14.464 : en:Chapter 3
00:22:52.557 : en:Chapter 4
00:29:03.157 : en:Chapter 5
00:36:15.552 : en:Chapter 6
00:43:04.693 : en:Chapter 7
Общее
Уникальный идентификатор : 240179923392669354000712293105931907265 (0xB4B0F87C89077F449B24573FE947F0C1)
Полное имя : D:\Фильмы\Сериалы\Terra nova HDTV 720p 59,94 fps 5.1\Terra.Nova.S01.720p.HDTV.DD5.1.MPEG2-CEZAR\Terra.Nova.S01E05.720p.HDTV.DD5.1.MPEG2-CEZAR.mkv
Формат : Matroska
Версия формата : Version 2
Размер файла : 4,71 Гбайт
Продолжительность : 43 м.
Режим общего битрейта : Переменный
Общий поток : 15,4 Мбит/сек
Дата кодирования : UTC 2011-10-23 16:53:39
Программа кодирования : mkvmerge v3.0.0 ('Hang up your Hang-Ups') built on Dec 12 2009 15:20:35
Библиотека кодирования : libebml v0.7.9 + libmatroska v0.8.1
Видео
Идентификатор : 1
Формат : MPEG Video
Версия формата : Version 2
Профиль формата : [email protected]
Параметр BVOP формата : Да
Параметр матрицы формата : По умолчанию
Идентификатор кодека : V_MPEG2
Идентификатор кодека/Информация : MPEG 1 or 2 Video
Продолжительность : 43 м.
Вид битрейта : Переменный
Битрейт : 14,2 Мбит/сек
Максимальный битрейт : 38,8 Мбит/сек
Ширина : 1280 пикселей
Высота : 720 пикселей
Соотношение сторон : 16:9
Active Format Description : Letterbox 16:9 image
Частота кадров : 59,940 кадров/сек
Цветовое пространство : YUV
Субдискретизация насыщенности : 4:2:0
Битовая глубина : 8 бит
Тип развёртки : Прогрессивная
Метод сжатия : С потерями
Бит/(Пиксели*Кадры) : 0.257
Размер потока : 4,34 Гбайт (92%)
Default : Да
Forced : Нет
Аудио #1
Идентификатор : 2
Формат : AC-3
Формат/Информация : Audio Coding 3
Расширение режима : CM (complete main)
Идентификатор кодека : A_AC3
Продолжительность : 43 м.
Вид битрейта : Постоянный
Битрейт : 448 Кбит/сек
Каналы : 6 каналов
Расположение каналов : Front: L C R, Side: L R, LFE
Частота : 48,0 КГц
Битовая глубина : 16 бит
Метод сжатия : С потерями
Задержка видео : 238 мс.
Размер потока : 140 Мбайт (3%)
Заголовок : 1 Chanel
Язык : Russian
Default : Да
Forced : Нет
Аудио #2
Идентификатор : 3
Формат : AC-3
Формат/Информация : Audio Coding 3
Расширение режима : CM (complete main)
Идентификатор кодека : A_AC3
Продолжительность : 43 м.
Вид битрейта : Постоянный
Битрейт : 448 Кбит/сек
Каналы : 6 каналов
Расположение каналов : Front: L C R, Side: L R, LFE
Частота : 48,0 КГц
Битовая глубина : 16 бит
Метод сжатия : С потерями
Задержка видео : 238 мс.
Размер потока : 140 Мбайт (3%)
Язык : English
Default : Нет
Forced : Нет
Текст #1
Идентификатор : 4
Формат : UTF-8
Идентификатор кодека : S_TEXT/UTF8
Идентификатор кодека/Информация : UTF-8 Plain Text
Язык : Russian
Default : Нет
Forced : Нет
Текст #2
Идентификатор : 5
Формат : UTF-8
Идентификатор кодека : S_TEXT/UTF8
Идентификатор кодека/Информация : UTF-8 Plain Text
Язык : English
Default : Нет
Forced : Нет
Меню
00:00:00.000 : en:Chapter 1
00:11:22.584 : en:Chapter 2
00:18:23.200 : en:Chapter 3
00:25:49.792 : en:Chapter 4
00:31:02.533 : en:Chapter 5
00:38:56.346 : en:Chapter 6
00:43:05.112 : en:Chapter 7
Общее
Уникальный идентификатор : 184420751796892947206619451510863460645 (0x8ABE251343BBC98EA9F3FEDD54F07925)
Полное имя : D:\Фильмы\Сериалы\Terra nova HDTV 720p 59,94 fps 5.1\Terra.Nova.S01.720p.HDTV.DD5.1.MPEG2-CEZAR\Terra.Nova.S01E06.720p.HDTV.DD5.1.MPEG2-CEZAR.mkv
Формат : Matroska
Версия формата : Version 2
Размер файла : 4,67 Гбайт
Продолжительность : 42 м.
Режим общего битрейта : Переменный
Общий поток : 15,5 Мбит/сек
Дата кодирования : UTC 2011-11-03 03:41:44
Программа кодирования : mkvmerge v3.0.0 ('Hang up your Hang-Ups') built on Dec 12 2009 15:20:35
Библиотека кодирования : libebml v0.7.9 + libmatroska v0.8.1
Видео
Идентификатор : 1
Формат : MPEG Video
Версия формата : Version 2
Профиль формата : [email protected]
Параметр BVOP формата : Нет
Параметр матрицы формата : По умолчанию
Идентификатор кодека : V_MPEG2
Идентификатор кодека/Информация : MPEG 1 or 2 Video
Продолжительность : 42 м.
Вид битрейта : Переменный
Битрейт : 14,3 Мбит/сек
Максимальный битрейт : 38,8 Мбит/сек
Ширина : 1280 пикселей
Высота : 720 пикселей
Соотношение сторон : 16:9
Частота кадров : 59,940 кадров/сек
Цветовое пространство : YUV
Субдискретизация насыщенности : 4:2:0
Битовая глубина : 8 бит
Тип развёртки : Прогрессивная
Метод сжатия : С потерями
Бит/(Пиксели*Кадры) : 0.259
Размер потока : 4,30 Гбайт (92%)
Default : Да
Forced : Нет
Аудио #1
Идентификатор : 2
Формат : AC-3
Формат/Информация : Audio Coding 3
Расширение режима : CM (complete main)
Идентификатор кодека : A_AC3
Продолжительность : 42 м.
Вид битрейта : Постоянный
Битрейт : 448 Кбит/сек
Каналы : 6 каналов
Расположение каналов : Front: L C R, Side: L R, LFE
Частота : 48,0 КГц
Битовая глубина : 16 бит
Метод сжатия : С потерями
Размер потока : 138 Мбайт (3%)
Заголовок : 1 Chanel
Язык : Russian
Default : Да
Forced : Нет
Аудио #2
Идентификатор : 3
Формат : AC-3
Формат/Информация : Audio Coding 3
Расширение режима : CM (complete main)
Идентификатор кодека : A_AC3
Продолжительность : 42 м.
Вид битрейта : Постоянный
Битрейт : 448 Кбит/сек
Каналы : 6 каналов
Расположение каналов : Front: L C R, Side: L R, LFE
Частота : 48,0 КГц
Битовая глубина : 16 бит
Метод сжатия : С потерями
Размер потока : 138 Мбайт (3%)
Язык : English
Default : Нет
Forced : Нет
Текст #1
Идентификатор : 4
Формат : UTF-8
Идентификатор кодека : S_TEXT/UTF8
Идентификатор кодека/Информация : UTF-8 Plain Text
Язык : Russian
Default : Нет
Forced : Нет
Текст #2
Идентификатор : 5
Формат : UTF-8
Идентификатор кодека : S_TEXT/UTF8
Идентификатор кодека/Информация : UTF-8 Plain Text
Язык : English
Default : Нет
Forced : Нет
Меню
00:00:00.000 : en:Chapter 1
00:10:35.621 : en:Chapter 2
00:18:33.195 : en:Chapter 3
00:23:50.850 : en:Chapter 4
00:29:44.628 : en:Chapter 5
00:36:42.945 : en:Chapter 6
00:42:22.870 : en:Chapter 7
Общее
Уникальный идентификатор : 176748239193047175506565532389191693681 (0x84F878FF74EDD108B225DD8770C7B571)
Полное имя : D:\Фильмы\Сериалы\Terra nova HDTV 720p 59,94 fps 5.1\Terra.Nova.S01.720p.HDTV.DD5.1.MPEG2-CEZAR\Terra.Nova.S01E07.720p.HDTV.DD5.1.MPEG2-CEZAR.mkv
Формат : Matroska
Версия формата : Version 2
Размер файла : 4,73 Гбайт
Продолжительность : 43 м.
Режим общего битрейта : Переменный
Общий поток : 15,6 Мбит/сек
Дата кодирования : UTC 2011-11-10 18:59:04
Программа кодирования : mkvmerge v3.0.0 ('Hang up your Hang-Ups') built on Dec 12 2009 15:20:35
Библиотека кодирования : libebml v0.7.9 + libmatroska v0.8.1
Видео
Идентификатор : 1
Формат : MPEG Video
Версия формата : Version 2
Профиль формата : [email protected]
Параметр BVOP формата : Нет
Параметр матрицы формата : По умолчанию
Идентификатор кодека : V_MPEG2
Идентификатор кодека/Информация : MPEG 1 or 2 Video
Продолжительность : 43 м.
Вид битрейта : Переменный
Битрейт : 14,3 Мбит/сек
Максимальный битрейт : 38,8 Мбит/сек
Ширина : 1280 пикселей
Высота : 720 пикселей
Соотношение сторон : 16:9
Частота кадров : 59,940 кадров/сек
Цветовое пространство : YUV
Субдискретизация насыщенности : 4:2:0
Битовая глубина : 8 бит
Тип развёртки : Прогрессивная
Метод сжатия : С потерями
Бит/(Пиксели*Кадры) : 0.260
Размер потока : 4,36 Гбайт (92%)
Default : Да
Forced : Нет
Аудио #1
Идентификатор : 2
Формат : AC-3
Формат/Информация : Audio Coding 3
Расширение режима : CM (complete main)
Идентификатор кодека : A_AC3
Продолжительность : 43 м.
Вид битрейта : Постоянный
Битрейт : 448 Кбит/сек
Каналы : 6 каналов
Расположение каналов : Front: L C R, Side: L R, LFE
Частота : 48,0 КГц
Битовая глубина : 16 бит
Метод сжатия : С потерями
Размер потока : 140 Мбайт (3%)
Заголовок : 1 Chanel
Язык : Russian
Default : Да
Forced : Нет
Аудио #2
Идентификатор : 3
Формат : AC-3
Формат/Информация : Audio Coding 3
Расширение режима : CM (complete main)
Идентификатор кодека : A_AC3
Продолжительность : 43 м.
Вид битрейта : Постоянный
Битрейт : 448 Кбит/сек
Каналы : 6 каналов
Расположение каналов : Front: L C R, Side: L R, LFE
Частота : 48,0 КГц
Битовая глубина : 16 бит
Метод сжатия : С потерями
Размер потока : 140 Мбайт (3%)
Язык : English
Default : Нет
Forced : Нет
Текст #1
Идентификатор : 4
Формат : UTF-8
Идентификатор кодека : S_TEXT/UTF8
Идентификатор кодека/Информация : UTF-8 Plain Text
Язык : Russian
Default : Нет
Forced : Нет
Текст #2
Идентификатор : 5
Формат : UTF-8
Идентификатор кодека : S_TEXT/UTF8
Идентификатор кодека/Информация : UTF-8 Plain Text
Язык : English
Default : Нет
Forced : Нет
Меню
00:00:00.000 : en:Chapter 1
00:09:51.616 : en:Chapter 2
00:18:35.802 : en:Chapter 3
00:25:42.205 : en:Chapter 4
00:31:29.204 : en:Chapter 5
00:36:46.888 : en:Chapter 6
00:42:55.614 : en:Chapter 7
Общее
Уникальный идентификатор : 225451888874157023203719682254882447842 (0xA99C745241C254D283A942572B17A1E2)
Полное имя : D:\Фильмы\Сериалы\Terra nova HDTV 720p 59,94 fps 5.1\Terra.Nova.S01.720p.HDTV.DD5.1.MPEG2-CEZAR\Terra.Nova.S01E08.720p.HDTV.DD5.1.MPEG2-CEZAR.mkv
Формат : Matroska
Версия формата : Version 2
Размер файла : 4,70 Гбайт
Продолжительность : 43 м.
Режим общего битрейта : Переменный
Общий поток : 15,4 Мбит/сек
Дата кодирования : UTC 2011-11-20 18:06:21
Программа кодирования : mkvmerge v3.0.0 ('Hang up your Hang-Ups') built on Dec 12 2009 15:20:35
Библиотека кодирования : libebml v0.7.9 + libmatroska v0.8.1
Видео
Идентификатор : 1
Формат : MPEG Video
Версия формата : Version 2
Профиль формата : [email protected]
Параметр BVOP формата : Нет
Параметр матрицы формата : По умолчанию
Идентификатор кодека : V_MPEG2
Идентификатор кодека/Информация : MPEG 1 or 2 Video
Продолжительность : 43 м.
Вид битрейта : Переменный
Битрейт : 14,2 Мбит/сек
Максимальный битрейт : 38,8 Мбит/сек
Ширина : 1280 пикселей
Высота : 720 пикселей
Соотношение сторон : 16:9
Частота кадров : 59,940 кадров/сек
Цветовое пространство : YUV
Субдискретизация насыщенности : 4:2:0
Битовая глубина : 8 бит
Тип развёртки : Прогрессивная
Метод сжатия : С потерями
Бит/(Пиксели*Кадры) : 0.257
Размер потока : 4,33 Гбайт (92%)
Default : Да
Forced : Нет
Аудио #1
Идентификатор : 2
Формат : AC-3
Формат/Информация : Audio Coding 3
Расширение режима : CM (complete main)
Идентификатор кодека : A_AC3
Продолжительность : 43 м.
Вид битрейта : Постоянный
Битрейт : 448 Кбит/сек
Каналы : 6 каналов
Расположение каналов : Front: L C R, Side: L R, LFE
Частота : 48,0 КГц
Битовая глубина : 16 бит
Метод сжатия : С потерями
Размер потока : 140 Мбайт (3%)
Язык : Russian
Default : Нет
Forced : Нет
Аудио #2
Идентификатор : 3
Формат : AC-3
Формат/Информация : Audio Coding 3
Расширение режима : CM (complete main)
Идентификатор кодека : A_AC3
Продолжительность : 43 м.
Вид битрейта : Постоянный
Битрейт : 448 Кбит/сек
Каналы : 6 каналов
Расположение каналов : Front: L C R, Side: L R, LFE
Частота : 48,0 КГц
Битовая глубина : 16 бит
Метод сжатия : С потерями
Размер потока : 140 Мбайт (3%)
Язык : English
Default : Нет
Forced : Нет
Текст #1
Идентификатор : 4
Формат : UTF-8
Идентификатор кодека : S_TEXT/UTF8
Идентификатор кодека/Информация : UTF-8 Plain Text
Заголовок : 1 Chanel
Язык : Russian
Default : Да
Forced : Нет
Текст #2
Идентификатор : 5
Формат : UTF-8
Идентификатор кодека : S_TEXT/UTF8
Идентификатор кодека/Информация : UTF-8 Plain Text
Язык : English
Default : Нет
Forced : Нет
Меню
00:00:00.000 : en:Chapter 1
00:12:49.020 : en:Chapter 2
00:19:31.550 : en:Chapter 3
00:24:33.677 : en:Chapter 4
00:31:08.158 : en:Chapter 5
00:36:27.629 : en:Chapter 6
00:43:02.940 : en:Chapter 7
Общее
Уникальный идентификатор : 223298992872059803882228252869075464118 (0xA7FDD25A6E9096CF96E7F3ECCD9CEFB6)
Полное имя : D:\Фильмы\Сериалы\Terra nova HDTV 720p 59,94 fps 5.1\Terra.Nova.S01.720p.HDTV.DD5.1.MPEG2-CEZAR\Terra.Nova.S01E09.720p.HDTV.DD5.1.MPEG2-CEZAR.mkv
Формат : Matroska
Версия формата : Version 2
Размер файла : 4,48 Гбайт
Продолжительность : 41 м.
Режим общего битрейта : Переменный
Общий поток : 15,6 Мбит/сек
Дата кодирования : UTC 2011-11-26 09:20:48
Программа кодирования : mkvmerge v3.0.0 ('Hang up your Hang-Ups') built on Dec 12 2009 15:20:35
Библиотека кодирования : libebml v0.7.9 + libmatroska v0.8.1
Видео
Идентификатор : 1
Формат : MPEG Video
Версия формата : Version 2
Профиль формата : [email protected]
Параметр BVOP формата : Нет
Параметр матрицы формата : По умолчанию
Идентификатор кодека : V_MPEG2
Идентификатор кодека/Информация : MPEG 1 or 2 Video
Продолжительность : 41 м.
Вид битрейта : Переменный
Битрейт : 14,3 Мбит/сек
Максимальный битрейт : 38,8 Мбит/сек
Ширина : 1280 пикселей
Высота : 720 пикселей
Соотношение сторон : 16:9
Частота кадров : 59,940 кадров/сек
Цветовое пространство : YUV
Субдискретизация насыщенности : 4:2:0
Битовая глубина : 8 бит
Тип развёртки : Прогрессивная
Метод сжатия : С потерями
Бит/(Пиксели*Кадры) : 0.260
Размер потока : 4,14 Гбайт (92%)
Default : Да
Forced : Нет
Аудио #1
Идентификатор : 2
Формат : AC-3
Формат/Информация : Audio Coding 3
Расширение режима : CM (complete main)
Идентификатор кодека : A_AC3
Продолжительность : 41 м.
Вид битрейта : Постоянный
Битрейт : 448 Кбит/сек
Каналы : 6 каналов
Расположение каналов : Front: L C R, Side: L R, LFE
Частота : 48,0 КГц
Битовая глубина : 16 бит
Метод сжатия : С потерями
Размер потока : 132 Мбайт (3%)
Заголовок : 1 Chanel
Язык : Russian
Default : Нет
Forced : Нет
Аудио #2
Идентификатор : 3
Формат : AC-3
Формат/Информация : Audio Coding 3
Расширение режима : CM (complete main)
Идентификатор кодека : A_AC3
Продолжительность : 41 м.
Вид битрейта : Постоянный
Битрейт : 448 Кбит/сек
Каналы : 6 каналов
Расположение каналов : Front: L C R, Side: L R, LFE
Частота : 48,0 КГц
Битовая глубина : 16 бит
Метод сжатия : С потерями
Размер потока : 132 Мбайт (3%)
Язык : English
Default : Нет
Forced : Нет
Текст #1
Идентификатор : 4
Формат : UTF-8
Идентификатор кодека : S_TEXT/UTF8
Идентификатор кодека/Информация : UTF-8 Plain Text
Язык : Russian
Default : Нет
Forced : Нет
Текст #2
Идентификатор : 5
Формат : UTF-8
Идентификатор кодека : S_TEXT/UTF8
Идентификатор кодека/Информация : UTF-8 Plain Text
Язык : English
Default : Нет
Forced : Нет
Меню
00:00:00.000 : en:Chapter 1
00:09:22.004 : en:Chapter 2
00:16:30.847 : en:Chapter 3
00:21:59.142 : en:Chapter 4
00:28:50.822 : en:Chapter 5
00:36:32.448 : en:Chapter 6
00:41:14.232 : en:Chapter 7
Общее
Уникальный идентификатор : 189757561783208722644650704961788014941 (0x8EC1FA1F5F9395F0A4B235CAB3C5715D)
Полное имя : D:\Фильмы\Сериалы\Terra nova HDTV 720p 59,94 fps 5.1\Terra.Nova.S01.720p.HDTV.DD5.1.MPEG2-CEZAR\Terra.Nova.S01E10.720p.HDTV.DD5.1.MPEG2-CEZAR.mkv
Формат : Matroska
Версия формата : Version 2
Размер файла : 4,38 Гбайт
Продолжительность : 40 м.
Режим общего битрейта : Переменный
Общий поток : 15,5 Мбит/сек
Дата кодирования : UTC 2011-12-01 08:16:53
Программа кодирования : mkvmerge v3.0.0 ('Hang up your Hang-Ups') built on Dec 12 2009 15:20:35
Библиотека кодирования : libebml v0.7.9 + libmatroska v0.8.1
Видео
Идентификатор : 1
Формат : MPEG Video
Версия формата : Version 2
Профиль формата : [email protected]
Параметр BVOP формата : Нет
Параметр матрицы формата : По умолчанию
Идентификатор кодека : V_MPEG2
Идентификатор кодека/Информация : MPEG 1 or 2 Video
Продолжительность : 40 м.
Вид битрейта : Переменный
Битрейт : 14,3 Мбит/сек
Максимальный битрейт : 38,8 Мбит/сек
Ширина : 1280 пикселей
Высота : 720 пикселей
Соотношение сторон : 16:9
Частота кадров : 59,940 кадров/сек
Цветовое пространство : YUV
Субдискретизация насыщенности : 4:2:0
Битовая глубина : 8 бит
Тип развёртки : Прогрессивная
Метод сжатия : С потерями
Бит/(Пиксели*Кадры) : 0.258
Размер потока : 4,04 Гбайт (92%)
Default : Да
Forced : Нет
Аудио #1
Идентификатор : 2
Формат : AC-3
Формат/Информация : Audio Coding 3
Расширение режима : CM (complete main)
Идентификатор кодека : A_AC3
Продолжительность : 40 м.
Вид битрейта : Постоянный
Битрейт : 448 Кбит/сек
Каналы : 6 каналов
Расположение каналов : Front: L C R, Side: L R, LFE
Частота : 48,0 КГц
Битовая глубина : 16 бит
Метод сжатия : С потерями
Размер потока : 130 Мбайт (3%)
Заголовок : 1 Chanel
Язык : Russian
Default : Да
Forced : Нет
Аудио #2
Идентификатор : 3
Формат : AC-3
Формат/Информация : Audio Coding 3
Расширение режима : CM (complete main)
Идентификатор кодека : A_AC3
Продолжительность : 40 м.
Вид битрейта : Постоянный
Битрейт : 448 Кбит/сек
Каналы : 6 каналов
Расположение каналов : Front: L C R, Side: L R, LFE
Частота : 48,0 КГц
Битовая глубина : 16 бит
Метод сжатия : С потерями
Размер потока : 130 Мбайт (3%)
Язык : English
Default : Нет
Forced : Нет
Текст #1
Идентификатор : 4
Формат : UTF-8
Идентификатор кодека : S_TEXT/UTF8
Идентификатор кодека/Информация : UTF-8 Plain Text
Язык : Russian
Default : Нет
Forced : Нет
Текст #2
Идентификатор : 5
Формат : UTF-8
Идентификатор кодека : S_TEXT/UTF8
Идентификатор кодека/Информация : UTF-8 Plain Text
Язык : English
Default : Нет
Forced : Нет
Меню
00:00:00.000 : en:Chapter 1
00:07:40.416 : en:Chapter 2
00:15:27.045 : en:Chapter 3
00:22:29.781 : en:Chapter 4
00:29:01.722 : en:Chapter 5
00:35:25.260 : en:Chapter 6
00:40:29.590 : en:Chapter 7
Новая серия от 20.12.2011!!! Полный сезон
Download / Скачать

Хотите скачать бесплатно? Зарегистрируйтесь на сайте (ссылка на регистрацию). Pirat.ca - самый быстрый торрент трекер в рунете!

Как скачивать  ·   Что такое торрент  ·   Рейтинг и ограничения



Последний раз редактировалось: djafart800 (2011-12-23 22:44), всего редактировалось 3 раз(а)

djafart800 ®

509

Пост 17-Дек-2011 23:44 (спустя 5 дней)

[Q] 

Новая серия от 13.12.2011

_________________
[Профиль]  [ЛС] 

djafart800 ®

509

Пост 23-Дек-2011 22:45 (спустя 5 дней)

[Q] 

Новая серия (двойная) от 20.12.2011
Раздача больше не пополняется - полный сезон (все серии)
Ожидайте раздачу 2-го сезона

_________________
[Профиль]  [ЛС] 

Пост 24-Дек-2011 14:12 (спустя 15 часов)

Топик был перенесен из форума Сериалы в эфире в форум Зарубежные сериалы

gEmOkPaT
 

gEmOkPaT

1423

Пост 10-Янв-2012 15:11 (спустя 17 дней)

[Q] 

Отличный сериал! помогу раздавать.

_________________
[Профиль]  [ЛС] 

Seva78

1518

Пост 23-Янв-2012 02:50 (спустя 12 дней)

[Q] 

Охохо размерчик:)

_________________
[Профиль]  [ЛС] 

gEmOkPaT

1423

Пост 21-Фев-2012 15:58 (спустя 29 дней)

[Q] 

Seva78, дык и качество солидное)))

_________________
[Профиль]  [ЛС] 

$ieJOKER

Гроза морей

2333

Пост 02-Апр-2012 01:22 (спустя 1 месяц 9 дней)

[Q] 

хачу хачу хачу!!1 ток вот с местом на компе накал... буду штудировать онлайн(((

_________________
Раздачи веду до первых сидов.
[Профиль]  [ЛС] 

Berar

Корсар

Пост 13-Авг-2012 09:48 (спустя 4 месяца 11 дней)

[Q] 

[Профиль]  [ЛС] 

CHARLI2236

1096

Пост 25-Июл-2013 18:26 (спустя 11 месяцев 12 дней)

[Q] 

8

_________________
[Профиль]  [ЛС] 

Андря

8410

Пост 18-Май-2016 13:08 (спустя 2 года 9 месяцев)

[Q] 

Полного источника не было: 9 месяцев 12 дней

_________________
Като Тешекика
[Профиль]  [ЛС] 
Показать сообщения:    
Ответить на тему

Текущее время: Сегодня 22:11

Часовой пояс: GMT + 4



Вы не можете начинать темы
Вы не можете отвечать на сообщения
Вы не можете редактировать свои сообщения
Вы не можете удалять свои сообщения
Вы не можете голосовать в опросах
Вы не можете прикреплять файлы к сообщениям
Вы не можете скачивать файлы

▼ Вниз