ML
     
  Уважаемый Гость!
Вы можете поддержать проект и зарегистрироваться у наших партнеров - онлайн-стратегия MyLands. При регистрации в игре Вы получите код, который сможете активировать после регистрации на pirat.ca и получить 1000 дублонов.

Ваш код:
a01a592a88af5f9996a6d1baec61b18a1769954d
 
     

Салем / Salem / Сезон: 2 / Полный / Серии: 13 из 13 (Дэвид Фон Энкен / David Von Ancken) [2015 г., фантастика, триллер, драма, WEB-DLRip] MVO (NewStudio) + Original (Eng)

Ответить на тему
 
Автор
Сообщение

Пост 12-Окт-2012 22:54

[Q] 

kugesan

-Салем / Salem
«Ведьмы среди нас»
-- Производство: США
Жанр: фантастика, триллер, драма
Год выпуска: 2015 г.-Мировая премьера: 20 апреля 2014-Озвучка: Студия |NewStudio|
Перевод: Многоголосый закадровый, профессиональный
Оригинальный аудиопоток: английский-Автор перевода: Алексей Матвеев
Постер: Vortex-Режиссер: Дэвид Фон Энкен / David Von Ancken, Алекс Закржевский / Alex Zakrzewski, Ник Копус / Nick Copus, ...-В ролях: Шэйн Уэст, Джанет Монтгомери, Эжур Дэун, Моргана Шоу, Сет Гейбл, Ксандер Беркли, Эшли Мадекве, Элиз Эберли, Джон Артур, Кристофер Берри, Дайан Салинджер ...-Описание:
Сюжет сериала закручен вокруг отважного ветерана войны, который возвращается с полей сражений в родной Салем. Добравшись до родных мест, мужчина обнаруживает, что все местное население охвачено безумием охоты на «ведьм».-Сезон: 2
Серии: 13 из 13 серий
Продолжительность: ~ 00:50:00 мин серия-
Качество видео: WEB-DLRip
Контейнер: AVI
Видео кодек: XviD
Аудио кодек: MP3
Видео: MPEG-4 Visual at 1253 Кбит/сек: 720 x 400 (1.800) at 23.976 fps: 0.18 Бит/Пиксели
Аудио Rus: MPEG Audio at 128 Кбит/сек, 2 канала, 48,0 КГц |NewStudio|
Аудио Eng: MPEG Audio at 128 Кбит/сек, 2 канала, 48,0 КГц |Original|
Cубтитры: отсутствуют
- -
  • Сеянье Смуты (Cry Havoc)
  • Кровавый Поцелуй (Blood Kiss)
  • Изнутри (From Within)
  • Книга Теней (Book of Shadows)
  • Винноцветное море (The Wine Dark Sea)
  • К добру ли эта встреча при луне (Ill Met by Moonlight)
  • То ярмарка манит (The Beckoning Fair One)
  • Мёртвые Птахи (Dead Birds)
  • Плата за грехи (Wages of Sin)
  • Пока смерть не разлучит нас (Til Death Do Us Part)
  • И стала земля адом (On Earth as in Hell)
  • Полночь не явится (Midnight Never Come)
  • Ведьмин час (The Witching Hour)
-
Общее
Полное имя : E:\_Сериалы\_Сериалы\Салем\Salem.s02.WEBDLRip.NewStudio.TV\Salem.s02e01.WEBDLRip.NewStudio.TV.avi
Формат : AVI
Формат/Информация : Audio Video Interleave
Размер файла : 550 Мбайт
Продолжительность : 50 м.
Общий поток : 1522 Кбит/сек
Программа кодирования : VirtualDubMod 1.5.10.2 (build 2540/release)
Библиотека кодирования : VirtualDubMod build 2540/release
Видео
Идентификатор : 0
Формат : MPEG-4 Visual
Профиль формата : Advanced [email protected]
Параметр BVOP формата : 2
Параметр QPel формата : Нет
Параметр GMC формата : Без точки перехода
Параметр матрицы формата : Default (MPEG)
Идентификатор кодека : XVID
Идентификатор кодека/Подсказка : XviD
Продолжительность : 50 м.
Битрейт : 1253 Кбит/сек
Ширина : 720 пикселей
Высота : 400 пикселей
Соотношение сторон : 16:9
Частота кадров : 23,976 кадра/сек
Цветовое пространство : YUV
Субдискретизация насыщенности : 4:2:0
Битовая глубина : 8 бит
Тип развёртки : Прогрессивная
Метод сжатия : С потерями
Бит/(Пиксели*Кадры) : 0.181
Размер потока : 452 Мбайт (82%)
Библиотека кодирования : XviD 64
Аудио #1
Идентификатор : 1
Формат : MPEG Audio
Версия формата : Version 1
Профиль формата : Layer 3
Режим : Joint stereo
Расширение режима : MS Stereo
Идентификатор кодека : 55
Идентификатор кодека/Подсказка : MP3
Продолжительность : 50 м.
Вид битрейта : Постоянный
Битрейт : 128 Кбит/сек
Каналы : 2 канала
Частота : 48,0 КГц
Метод сжатия : С потерями
Размер потока : 46,2 Мбайт (8%)
Выравнивание : Соединение по промежуткам
Продолжительность промежутка : 42 мс. (1,00 видеокадр)
Время предзагрузки промежутка : 504 мс.
Аудио #2
Идентификатор : 2
Формат : MPEG Audio
Версия формата : Version 1
Профиль формата : Layer 3
Режим : Joint stereo
Расширение режима : MS Stereo
Идентификатор кодека : 55
Идентификатор кодека/Подсказка : MP3
Продолжительность : 50 м.
Вид битрейта : Постоянный
Битрейт : 128 Кбит/сек
Каналы : 2 канала
Частота : 48,0 КГц
Метод сжатия : С потерями
Размер потока : 46,2 Мбайт (8%)
Выравнивание : Соединение по промежуткам
Продолжительность промежутка : 42 мс. (1,00 видеокадр)
Время предзагрузки промежутка : 504 мс.
Библиотека кодирования : LAME3.99r
Настройки программы : -m j -V 4 -q 2 -lowpass 17 -b 128
-
-Скриншоты:
-
-
1. Открыть торрент
2. Снять галки с тех файлов торрента, которые мы не хотим закачивать. Оставляем только на нужных нам файлах (файле).
3. Нажать О.К.
В клиенте utorrent
Инструкция
1) Открыть торрент

2) Снять галки с тех файлов торрента, которые мы не хотим закачивать:
* либо вручную, снимая с каждого файла галку( скрин №1)
* либо, нажав кнопку "Снять метки (Select None)", сняв сразу со всех файлов(скрин №2)
№1

№2

Оставляем только на нужных нам файлах (файле).

3)Нажать О.К
Добавлена тринадцатая, заключительная, серия второго сезона
Download / Скачать

Хотите скачать бесплатно? Зарегистрируйтесь на сайте (ссылка на регистрацию). Pirat.ca - самый быстрый торрент трекер в рунете!

Как скачивать  ·   Что такое торрент  ·   Рейтинг и ограничения



Последний раз редактировалось: kugesan (2015-06-30 23:53), всего редактировалось 27 раз(а)

pdb08

Легенда

Пост 07-Апр-2015 15:02 (спустя 2 года 5 месяцев)

[Q] 

Спасибо за труды! Раздающему респект!

_________________
[Профиль]  [ЛС] 

LPPI

137543

Пост 07-Апр-2015 16:08 (спустя 1 час 6 минут)

[Q] 

Ого 2 сезон, мне первый очень понравился Всем качать!!! Супер!
[Профиль]  [ЛС] 

kugesan ®

56691

Пост 07-Апр-2015 17:25 (спустя 1 час 17 минут)

[Q] 

Приятного просмотра!!!

_________________

В мире две бесконечности: вселенная и человеческая глупость - Альберт Эйнштен
«Можно вытащить человека из грязи, но нельзя вытащить грязь из человека»!
[Профиль]  [ЛС] 

vbFlick

Шкипер

Пост 07-Апр-2015 20:10 (спустя 2 часа 44 минуты)

[Q] 

как-то вот так неожиданно приятно) Раздающему респект!
[Профиль]  [ЛС] 

viktor41

Шкипер

Пост 12-Май-2015 17:53 (спустя 1 месяц 4 дня)

[Q] 

kugesan, Спасибочки тебе . Всем качать!!! Супер!
[Профиль]  [ЛС] 

kugesan ®

56691

Пост 30-Июн-2015 23:54 (спустя 1 месяц 18 дней)

[Q] 

Добавлена тринадцатая, заключительная, серия второго сезона

_________________

В мире две бесконечности: вселенная и человеческая глупость - Альберт Эйнштен
«Можно вытащить человека из грязи, но нельзя вытащить грязь из человека»!
[Профиль]  [ЛС] 

Пост 01-Июл-2015 00:55 (спустя 1 час)

Топик был перенесен из форума Сериалы в эфире в форум Зарубежные сериалы
Андря
 
Показать сообщения:    
Ответить на тему

Текущее время: Сегодня 09:48

Часовой пояс: GMT + 4



Вы не можете начинать темы
Вы не можете отвечать на сообщения
Вы не можете редактировать свои сообщения
Вы не можете удалять свои сообщения
Вы не можете голосовать в опросах
Вы не можете прикреплять файлы к сообщениям
Вы не можете скачивать файлы

▼ Вниз