ML
     
  Уважаемый Гость!
Вы можете поддержать проект и зарегистрироваться у наших партнеров - онлайн-стратегия MyLands. При регистрации в игре Вы получите код, который сможете активировать после регистрации на pirat.ca и получить 1000 дублонов.

Ваш код:
4fbd9898b6f10799a3e8edf60f31febd2bc15453
 
     

Как я встретил вашу маму 8 сезон (1-14 из 24) / How I met your mother 8 season (1-14 of 24) (Картер Бейс) [2012 г., Комедия, HDTVRip] VO

Ответить на тему
 
Автор
Сообщение

Пост 16-Окт-2012 13:18

[Q] 

Valter

Шкипер

-Как я встретил вашу маму 8 сезон (1-14 из 24)
How I met your mother 8 season (1-14 of 24)
-- Производство: США
Жанр: Комедия
Год выпуска: 2012 г.
Продолжительность: ~00:21
Перевод: Профессиональный (одноголосый, закадровый)
Режиссер: Картер Бейс-В ролях: Джош Рэднор, Джейсон Сегел, Коби Смалдерс, Нил Патрик Хэррис, Эллисон Хэнниган-Описание: How I met your mother - комедия про Теда (Джош Рэднор) и про то, как он влюбился. Все неприятности начинаются с того, что лучший друг Теда, Маршалл (Джейсон Сегел) вдруг неожиданно сообщил, что он хочет сделать предложение своей давней подруге, Лили (Эллисон Хэнниган), воспитательнице детского сада. К тому времени Тед понимает, что ему нужно прилагать больше усилий, если он действительно надеется найти свою настоящую любовь. Помогает ему в этих поисках его друг Барни (Нил Патрик Хэррис), убежденный холостяк, вечно со своим, иногда чересчур, мнением на все происходящее, со склонностью к костюмам и верным способом познакомиться с девушками. Когда Тед встречает Робин (Коби Смалдерс), он решает, что это любовь с первого взгляда, но у судьбы в запасе есть кое-что еще. Сериал представлен в форме повествования в будущем.-Качество видео: HDTVRip
Формат видео: AVI
Видео кодек: XviD
Аудио кодек: MP3
Видео: 656x368, XviD MPEG-4 ~1023 Кбит/сек, 23,976 кадра/сек
Аудио: Русский: 48 kHz, MPEG Layer 3, 2 ch, ~160.00 kbps avg
Аудио #2: Английский: 48 kHz, MPEG Layer 3, 2 ch, ~160.00 kbps avg
Cубтитры: отсутствуют
Доп. информация: Озвучено по версии "Кураж-Бамбей"
Общее
Полное имя : E:\How I Met Your Mother - Season 8 [Kuraj-Bambey.Ru]\How.I.Met.Your.Mother.s08e03.howimet.ru.avi
Формат : AVI
Формат/Информация : Audio Video Interleave
Размер файла : 205 Мбайт
Продолжительность : 21 м.
Общий поток : 1325 Кбит/сек
Программа кодирования : VirtualDubMod 1.5.10.2 (build 2540/release)
Библиотека кодирования : VirtualDubMod build 2540/release
Видео
Идентификатор : 0
Формат : MPEG-4 Visual
Профиль формата : Advanced [email protected]
Параметр BVOP формата : 1
Параметр QPel формата : Нет
Параметр GMC формата : Без точки перехода
Параметр матрицы формата : Default (MPEG)
Идентификатор кодека : XVID
Идентификатор кодека/Подсказка : XviD
Продолжительность : 21 м.
Битрейт : 1023 Кбит/сек
Ширина : 656 пикселей
Высота : 368 пикселей
Соотношение сторон : 16:9
Частота кадров : 23,976 кадра/сек
Цветовое пространство : YUV
Субдискретизация насыщенности : 4:2:0
Битовая глубина : 8 бит
Тип развёртки : Прогрессивная
Метод сжатия : С потерями
Бит/(Пиксели*Кадры) : 0.177
Размер потока : 158 Мбайт (77%)
Библиотека кодирования : XviD 63
Аудио #1
Идентификатор : 1
Формат : MPEG Audio
Версия формата : Version 1
Профиль формата : Layer 3
Идентификатор кодека : 55
Идентификатор кодека/Подсказка : MP3
Продолжительность : 21 м.
Вид битрейта : Постоянный
Битрейт : 160 Кбит/сек
Каналы : 2 канала
Частота : 48,0 КГц
Метод сжатия : С потерями
Размер потока : 24,8 Мбайт (12%)
Выравнивание : Соединение по промежуткам
Продолжительность промежутка : 42 мс. (1,00 видеокадр)
Время предзагрузки промежутка : 504 мс.
Аудио #2
Идентификатор : 2
Формат : MPEG Audio
Версия формата : Version 1
Профиль формата : Layer 3
Режим : Joint stereo
Расширение режима : MS Stereo
Идентификатор кодека : 55
Идентификатор кодека/Подсказка : MP3
Продолжительность : 21 м.
Вид битрейта : Постоянный
Битрейт : 128 Кбит/сек
Каналы : 2 канала
Частота : 48,0 КГц
Метод сжатия : С потерями
Размер потока : 19,8 Мбайт (10%)
Выравнивание : Соединение по промежуткам
Продолжительность промежутка : 42 мс. (1,00 видеокадр)
Время предзагрузки промежутка : 504 мс.
Библиотека кодирования : LAME3.98r
Настройки программы : -m j -V 4 -q 0 -lowpass 17 -b 128
Download / Скачать

Хотите скачать бесплатно? Зарегистрируйтесь на сайте (ссылка на регистрацию). Pirat.ca - самый быстрый торрент трекер в рунете!

Как скачивать  ·   Что такое торрент  ·   Рейтинг и ограничения



Последний раз редактировалось: Valter (2013-01-29 21:32), всего редактировалось 11 раз(а)

Пост 17-Окт-2012 00:37 (спустя 11 часов)

Топик был перенесен из форума Зарубежные сериалы (Трюм) в форум Сериалы в эфире

gEmOkPaT
 

АлександрЪЪЪ

Морской Волк

79

Пост 02-Ноя-2012 15:29 (спустя 17 дней)

[Q] 

когда 5я серия будет????
[Профиль]  [ЛС] 

Maxcapr

Лоцман

Пост 27-Ноя-2012 21:33 (спустя 25 дней)

[Q] 

Что-то ни одного человека на раздаче, уже 6 часов...
[Профиль]  [ЛС] 

FruTT

Корсар

2

Пост 29-Ноя-2012 22:07 (спустя 2 дня)

[Q] 

Спасибо за раздачу :))))

_________________
Подпись отключена за нарушение правил форума
[Профиль]  [ЛС] 

I7aTpuoT

Штурман

Пост 08-Янв-2013 23:13 (спустя 1 месяц 9 дней)

[Q] 

ну можно поржать иногда)
[Профиль]  [ЛС] 

runic333

Лоцман

Пост 18-Июл-2013 19:55 (спустя 6 месяцев 9 дней)

[Q] 

Кто ни будь встаньте на раздачу, плз!!!))))
[Профиль]  [ЛС] 

Tolich2

Морской Волк

Пост 24-Сен-2013 22:55 (спустя 2 месяца 6 дней)

[Q] 

9-й сезон вышел!!!
Уже есть 2 серии с сабами. Ждем озвучку Куража и релиза здесь! cx

_________________
[Профиль]  [ЛС] 

holdemkolfild

Штурман

Пост 08-Май-2014 17:20 (спустя 7 месяцев 13 дней)

[Q] 

!COOL! Раздавать будем или как? спасибо!
[Профиль]  [ЛС] 
Показать сообщения:    
Ответить на тему

Текущее время: Сегодня 20:00

Часовой пояс: GMT + 4



Вы не можете начинать темы
Вы не можете отвечать на сообщения
Вы не можете редактировать свои сообщения
Вы не можете удалять свои сообщения
Вы не можете голосовать в опросах
Вы не можете прикреплять файлы к сообщениям
Вы не можете скачивать файлы

▼ Вниз