ML
     
  Уважаемый Гость!
Вы можете поддержать проект и зарегистрироваться у наших партнеров - онлайн-стратегия MyLands. При регистрации в игре Вы получите код, который сможете активировать после регистрации на pirat.ca и получить 1000 дублонов.

Ваш код:
47bfc18b89c74e4ae0d974e9b6943639e2bff08e
 
     

Хейло 4: Идущий к рассвету / Halo 4: Forward Unto Dawn / Сезон: 1 / Серии: 5 из 5 (Стюарт Хендлер / Stewart Hendler) [2012, Фантастика, WEBRip 720p] DVO (Alternative Production)

Ответить на тему
 
Автор
Сообщение

Пост 04-Ноя-2012 16:45

[Q] 

zyyx

Хейло 4: Идущий к рассвету / Halo 4: Forward Unto Dawn Год выпуска: 2012
Страна: США
Жанр: Фантастика
Продолжительность: 00:19:00 серия
Перевод: Любительский двухголосый закадровый | Alternative Production
Перевод : MrKarlikNos
Работа со звуком : Simarhl, AleXounDirector
Работа с видео : AleXounDirector
Роли озвучивали : Julliet и Simarhl
Режиссёр: Стюарт Хендлер / Stewart Hendlerpic
В ролях: Айэйн Белчер (Iain Belcher), Дженна Берман (Jenna Berman), Эниша Брюстер (Enisha Brewster), Дэниэл Кадмор (Daniel Cudmore), Майк Допуд (Mike Dopud), Анна Попплуэлл (Anna Popplewell)
Описание: Эта история возвращает игроков к началу войны между людьми и Ковенантами и подводит к событиям, происходящим в игре Halo 4. В стенах военной академии Космического Командования Объединённых Наций (UNSC) группу курсантов знатного происхождения готовят стать следующим поколением солдат в надвигающейся войне между UNCS и повстанцами на колониальных планетах. Один из кадетов, Томас Ласки, ведет внутреннюю борьбу, преодолевая сомнения по поводу войны и опасения не оправдать высоких ожиданий командования. К тому моменту, как Ласки смирился со своей ролью будущего командира, ужасающее войско альянса Ковенант вторгается на планету и переворачивает привычный мир героя с ног на голову. Вдохновлённый подвигами Мастера Чифа, Ласки должен на собственном опыте узнать, что значит быть героем.
Качество: WEBRip 720p
Формат: MKV
Видео кодек: XviD
Аудио кодек: AC3
Видео: XviD MPEG-4 Codec, 1280x528, 23.976 fps, ~2264 kbps, ~0.140 bit\pixel
Аудио #1: 48 KHz, stereo, 192 kbps | Rus
Аудио #2: 48 KHz, stereo, 192 kbps | Eng
General
Unique ID : 225109353437035896475722045370754339002 (0xA95A7C0537875BCF8F0FF91C7D1310BA)
Complete name : G:\Halo 4 Machinima\[Alternative production] Halo 4 - Forward Unto Dawn Part1 [HD] [Xvid, ac3].mkv
Format : Matroska
Format version : Version 2
File size : 375 MiB
Duration : 19mn 25s
Overall bit rate : 2 702 Kbps
Encoded date : UTC 2012-10-19 06:41:00
Writing application : mkvmerge v5.7.0 ('The Whirlwind') built on Jul 8 2012 20:08:51
Writing library : libebml v1.2.3 + libmatroska v1.3.0
Video
ID : 1
Format : MPEG-4 Visual
Format profile : Advanced [email protected]
Format settings, BVOP : Yes
Format settings, QPel : No
Format settings, GMC : No warppoints
Format settings, Matrix : Default (H.263)
Codec ID : XVID
Codec ID/Hint : XviD
Duration : 19mn 25s
Bit rate : 2 264 Kbps
Width : 1 280 pixels
Height : 528 pixels
Display aspect ratio : 2.40:1
Frame rate : 23.976 fps
Color space : YUV
Chroma subsampling : 4:2:0
Bit depth : 8 bits
Scan type : Progressive
Compression mode : Lossy
Bits/(Pixel*Frame) : 0.140
Stream size : 314 MiB (84%)
Title : Halo 4 - Forward unto dawn part 1
Writing library : XviD 73
Language : English
Default : Yes
Forced : No
Audio #1
ID : 2
Format : AC-3
Format/Info : Audio Coding 3
Mode extension : CM (complete main)
Format settings, Endianness : Big
Codec ID : A_AC3
Duration : 19mn 25s
Bit rate mode : Constant
Bit rate : 192 Kbps
Channel(s) : 2 channels
Channel positions : Front: L R
Sampling rate : 48.0 KHz
Bit depth : 16 bits
Compression mode : Lossy
Stream size : 26.7 MiB (7%)
Title : Alternative production DVO
Language : Russian
Default : Yes
Forced : No
Audio #2
ID : 3
Format : AC-3
Format/Info : Audio Coding 3
Mode extension : CM (complete main)
Format settings, Endianness : Big
Codec ID : A_AC3
Duration : 19mn 25s
Bit rate mode : Constant
Bit rate : 192 Kbps
Channel(s) : 2 channels
Channel positions : Front: L R
Sampling rate : 48.0 KHz
Bit depth : 16 bits
Compression mode : Lossy
Stream size : 26.7 MiB (7%)
Language : English
Default : No
Forced : No


Download / Скачать

Хотите скачать бесплатно? Зарегистрируйтесь на сайте (ссылка на регистрацию). Pirat.ca - самый быстрый торрент трекер в рунете!

Как скачивать  ·   Что такое торрент  ·   Рейтинг и ограничения

Пост 05-Ноя-2012 00:12 (спустя 7 часов)

Топик был перенесен из форума Зарубежные сериалы (Трюм) в форум Зарубежные сериалы

Андря
 

kindcat

Морской Волк

Пост 05-Ноя-2012 00:54 (спустя 8 часов)

[Q] 

Оо опа брат, тут ты меня удивил...Спасибо гляну!

_________________
[Профиль]  [ЛС] 

raul kurochka

Корсар

Пост 10-Ноя-2012 03:39 (спустя 5 дней)

[Q] 


_________________
...ЧО ТАКОЙ СЕРЬЕЗНЫЙ???
[Профиль]  [ЛС] 

BolshakOFF

Морской Волк

Пост 10-Ноя-2012 21:10 (спустя 17 часов)

[Q] 

На stopgame.ru замечательный многоголосый перевод
[Профиль]  [ЛС] 

aleks_al

Штурман

Пост 11-Дек-2012 22:56 (спустя 1 месяц 1 день)

[Q] 

а когда будет 6 часть?
[Профиль]  [ЛС] 

Сумрак

1660

Пост 27-Авг-2015 21:24 (спустя 2 года 8 месяцев)

[Q] 

так то их 10 уже )))

_________________
[Профиль]  [ЛС] 
Показать сообщения:    
Ответить на тему

Текущее время: Сегодня 07:03

Часовой пояс: GMT + 4



Вы не можете начинать темы
Вы не можете отвечать на сообщения
Вы не можете редактировать свои сообщения
Вы не можете удалять свои сообщения
Вы не можете голосовать в опросах
Вы не можете прикреплять файлы к сообщениям
Вы не можете скачивать файлы

▼ Вниз