ML
     
  Уважаемый Гость!
Вы можете поддержать проект и зарегистрироваться у наших партнеров - онлайн-стратегия MyLands. При регистрации в игре Вы получите код, который сможете активировать после регистрации на pirat.ca и получить 1000 дублонов.

Ваш код:
a978488e62322cd72e113ab723b8a7fdc10eb9b9
 
     

Как я встретил вашу маму (Сезон 5, эпизоды 1-24) / How I Met Your Mother (Памела Фрайман, Роб Гринберг) [2009-2010 г., комедия, мелодрама, WEB-DLRip] [Озвучено по версии Кураж-Бамбей]

Ответить на тему
 
Автор
Сообщение

Пост 14-Дек-2011 19:33

[Q] 

Андря

Как я встретил вашу маму / How I Met Your Mother
Год выпуска: 2009-2010
Страна: США
Жанр: комедия, мелодрама
Продолжительность: 25 мин.
Перевод: Одноголосый, по версии Кураж-Бамбей
Русские субтитры: нет
Режиссер: Памела Фрайман, Роб Гринберг
В ролях: Джош Рэднор, Джейсон Сигел, Коби Смолдерс, Нил Патрик Харрис, Элисон Хэннигэн, Боб Сагет, Линдси Фонсека, Дэвид Хенри, Charlene Amoia, Джо Нивз и т.д.
Описание: Как я встретил вашу маму — комедия про Теда и про то, как он влюбился. Все неприятности начинаются с того, что лучший друг Теда, Маршалл вдруг неожиданно сообщил, что он хочет сделать предложение своей давней подруге, Лили, воспитательнице детского сада. К тому времени Тед понимает, что ему нужно прилагать больше усилий, если он действительно надеется найти свою настоящую любовь. Помогает ему в этих поисках его друг Барни, убежденный холостяк, вечно со своим, иногда чересчур, мнением на все происходящее, со склонностью к костюмам и верным способом познакомиться с девушками. Когда Тед встречает Робин, он решает, что это любовь с первого взгляда, но у судьбы в запасе есть кое-что еще.
Доп. информация:
Перевод: SLIVAS, Mike Rosoft, Zepa
Озвучка:
Качество: WEB-DLRip
Формат: m4v
Видео кодек: H.264
Аудио кодек: AAC
Видео: ~ 500 Kbps, 480*272 (16/9), at 23.976 fps, H.264
Аудио: ~ 128 Kbps, 48 KHz, 2 channels, AAC LC
[19.03.2010] Добавлены 16 и 17 серии, подправлены теги во всех эпизодах.
[03.04.2010] Добавлена 18 серия; тип медиафайла изменён на "Телешоу" (так удобнее, ИМХО) - эпизоды ищите теперь во вкладке "Телешоу", а не "Фильмы"
[16.04.2010] Добавлена 19 серия.
[28.04.2010] Добавлена 20 серия.
[07.05.2010] Добавлена 21 серия.
[17.05.2010] Добавлена 22 серия.
[23.05.2010] Добавлена 23 серия.
[29.05.2010] Добавлена 24 серия.
[21.06.2010] Серия 22 была в двух экземплярах, одну удалил.
[05.06.2011] Перекодирован весь сезон из-за жалоб на плохое качество звука.
[03.07.2011] Переделал мета теги. Была жалоба на их отсутствие, хотя у меня всё прописано было.
How.I.Met.Your.Mother.S05E01.rus.iPhone.HDTV.[Kuraj-Bambey.Ru].mp4 Общее
Полное имя : D:\iPhone\Videos\HIMYM S05\How.I.Met.Your.Mother.S05E01.rus.iPhone.WEB-DL.[Kuraj-Bambey.Ru].m4v
Формат : MPEG-4
Профиль формата : Base Media
Идентификатор кодека : isom
Размер файла : 98,2 Мбайт
Продолжительность : 21 м.
Общий поток : 638 Кбит/сек
Название фильма : Definitions
Часть/Положение : 1
Часть/Всего : 0
Дорожка/Положение : 1
Дорожка/Всего : 24
Исполнитель : Josh Radnor, Jason Segel, Cobie Smulders, Neil Patrick Harris, Alyson Hannigan
Жанр : Unknown kind of value!
Дата записи : 2009
Дата пометки : UTC 2011-07-03 18:55:27
Программа кодирования : XviD4PSP 6.0 / 53.2.0
Обложка : Yes
iTunEXTC : us-tv|TV-PG|400|
tvsh : How I Met Your Mother
tven : Definitions
tvsn : 5
tves : 1
desc : When the gang finds out that Barney and Robin are hesitant to define their relationship, Lily forces them to confront their biggest fear...becoming boyfriend/girlfriend. Meanwhile, Ted is anxious about teaching his first lecture at Columbia.
stik : 10
Видео
Идентификатор : 1
Формат : AVC
Формат/Информация : Advanced Video Codec
Профиль формата : [email protected]
Параметр CABAC формата : Нет
Параметр ReFrames формата : 3 кадра
Идентификатор кодека : avc1
Идентификатор кодека/Информация : Advanced Video Coding
Продолжительность : 21 м.
Вид битрейта : Переменный
Битрейт : 504 Кбит/сек
Ширина : 480 пикс.
Высота : 272 пикс.
Соотношение сторон : 16:9
Соотношение сторон в оригинале : 16:9
Режим частоты кадров : Постоянный
Частота кадров : 23,976 кадр/сек
Цветовое пространство : YUV
Подвыборка цветности : 4:2:0
Битовая глубина : 8 бит
Тип развёртки : Прогрессивная
Бит/(Пиксели*Кадры) : 0.161
Размер потока : 77,5 Мбайт (79%)
Библиотека кодирования : x264 core 115 r1995M c1e60b9
Настройки программы : cabac=0 / ref=3 / deblock=1:-1:-1 / analyse=0x1:0x131 / me=tesa / subme=10 / psy=1 / psy_rd=1.00:0.15 / mixed_ref=1 / me_range=16 / chroma_me=1 / trellis=2 / 8x8dct=0 / cqm=0 / deadzone=21,11 / fast_pskip=1 / chroma_qp_offset=-3 / threads=6 / sliced_threads=0 / nr=0 / decimate=1 / interlaced=0 / bluray_compat=0 / constrained_intra=0 / bframes=0 / weightp=0 / keyint=230 / keyint_min=23 / scenecut=40 / intra_refresh=0 / rc_lookahead=40 / rc=crf / mbtree=1 / crf=20.0 / qcomp=0.60 / qpmin=10 / qpmax=51 / qpstep=4 / vbv_maxrate=2500 / vbv_bufsize=2000 / crf_max=30.0 / nal_hrd=none / ip_ratio=1.40 / aq=1:1.00
Язык : English
Аудио
Идентификатор : 2
Формат : AAC
Формат/Информация : Advanced Audio Codec
Профиль формата : LC
Идентификатор кодека : 40
Продолжительность : 21 м.
Вид битрейта : Переменный
Битрейт : 128 Кбит/сек
Максимальный битрейт : 241 Кбит/сек
Каналы : 2 канала
Расположение каналов : Front: L R
Частота : 48,0 КГц
Метод сжатия : С потерями
Размер потока : 19,7 Мбайт (20%)
Язык : Russian
Дата пометки : UTC 2011-06-03 23:28:34




Download / Скачать

Хотите скачать бесплатно? Зарегистрируйтесь на сайте (ссылка на регистрацию). Pirat.ca - самый быстрый торрент трекер в рунете!

Как скачивать  ·   Что такое торрент  ·   Рейтинг и ограничения

Показать сообщения:    
Ответить на тему

Текущее время: Сегодня 22:09

Часовой пояс: GMT + 4



Вы не можете начинать темы
Вы не можете отвечать на сообщения
Вы не можете редактировать свои сообщения
Вы не можете удалять свои сообщения
Вы не можете голосовать в опросах
Вы не можете прикреплять файлы к сообщениям
Вы не можете скачивать файлы

▼ Вниз