ML
     
  Уважаемый Гость!
Вы можете поддержать проект и зарегистрироваться у наших партнеров - онлайн-стратегия MyLands. При регистрации в игре Вы получите код, который сможете активировать после регистрации на pirat.ca и получить 1000 дублонов.

Ваш код:
e6008d9811a0b6a1393c3dc51ecd7bc35637bc21
 
     

Пираты (Карибы / Пираты Карибского Моря: Хвост Дьявола) (1-4 серии из 4) / Caraibi (Ламберто Бава / Lamberto Bava) [1999 г., приключения] MVO

Ответить на тему
 
Автор
Сообщение

Пост 17-Ноя-2012 20:39

[Q] 

Фтещт

Корсар

-Пираты (Карибы / Пираты Карибского Моря: Хвост Дьявола) (1-4 серии из 4) / Caraibi-- Производство: France 2 (FR2), Mediaset, Taurus Film
Год выпуска: 1999 г.
Жанр: приключения
Продолжительность: 06:40:00
Перевод: Профессиональный (многоголосый, закадровый)
Режиссер: Ламберто Бава-В ролях: Марио Адорф, Анна Фальчи, Дженнифер Нитш, Николас Роджерс, Паоло Седжанти, Ремо Джироне, Падма Лакшми, Франческо Касале, Микаэла Фленерова, Бранислав Мартинак, Джанни Музи, Хосе Антонио Родригез, Отто Шевчик-Описание: XVII век. На морских просторах царствуют безжалостные пираты. Многие страны пытались усмирить морских дьяволов, но сделать это никому так и не удалось. Свежий морской ветер и соленые брызги, свист пуль и звон абордажных сабель, грохот канонады и залитая кровью палуба, треск разлетающихся бортов и крики умирающих, пираты убивают и грабят всех, кто окажется на их пути. Объявленные вне закона, они не боятся ни бога, ни дьявола, ловко уходя от погони королевского флота. Те, кто выбрал их путь, прокляты родиной и приговорены к смерти. Солёное море навсегда стало их домом... Они были братьями, но любили одну и ту же женщину. После её случайной гибели один уходит на службу к королю Франции и становится капитаном флота его величества, другой становится знаменитым пиратом. Они поклялись убить друг друга. И судьба свела их на морских просторах в грандиозном противостоянии, в битве не на жизнь, а на смерть!-
Качество видео: DVDRip
Формат видео: AVI
Видео кодек: DivX
Аудио кодек: AC3
Видео: DivX 5, 1357 Кбит/сек, 640х480, 4:3, 25,000 кадров/сек, 8 бит, 0.177 Бит/Пиксел
Аудио: 192 Кбит/сек, 2 канала, 48,0 КГц
Cубтитры: отсутствуют
Общее
Полное имя : C:\films\Piraty.(4.serii.iz.4).1999.DivX.DVDRip.pirat.ca\Piraty.(1.seriya.iz.4).1999.DivX.DVDRip.Kinozal.TV.avi
Формат : AVI
Формат/Информация : Audio Video Interleave
Размер файла : 1,09 Гбайт
Продолжительность : 1 ч. 40 м.
Общий поток : 1558 Кбит/сек
Программа кодирования : VirtualDubMod 1.5.10.2 (build 2540/release)
Библиотека кодирования : VirtualDubMod build 2540/release
Видео
Идентификатор : 0
Формат : MPEG-4 Visual
Параметр BVOP формата : 1
Параметр QPel формата : Нет
Параметр GMC формата : Без точки перехода
Параметр матрицы формата : Default (MPEG)
Режим смешивания : Сжатый битовый поток
Идентификатор кодека : DX50
Идентификатор кодека/Подсказка : DivX 5
Продолжительность : 1 ч. 40 м.
Битрейт : 1357 Кбит/сек
Ширина : 640 пикселей
Высота : 480 пикселей
Соотношение сторон : 4:3
Частота кадров : 25,000 кадров/сек
Цветовое пространство : YUV
Субдискретизация насыщенности : 4:2:0
Битовая глубина : 8 бит
Тип развёртки : Прогрессивная
Метод сжатия : С потерями
Бит/(Пиксели*Кадры) : 0.177
Размер потока : 975 Мбайт (87%)
Библиотека кодирования : DivX 5.2.1 Beta (UTC 2004-09-08)
Аудио
Идентификатор : 1
Формат : AC-3
Формат/Информация : Audio Coding 3
Расширение режима : CM (complete main)
Параметр Endianness формата : Big
Идентификатор кодека : 2000
Продолжительность : 1 ч. 40 м.
Вид битрейта : Постоянный
Битрейт : 192 Кбит/сек
Каналы : 2 канала
Расположение каналов : Front: L R
Частота : 48,0 КГц
Битовая глубина : 16 бит
Метод сжатия : С потерями
Задержка видео : 8 мс.
Размер потока : 138 Мбайт (12%)
Выравнивание : Разделение по промежуткам
Продолжительность промежутка : 40 мс. (1,00 видеокадр)
Время предзагрузки промежутка : 500 мс.
Download / Скачать

Хотите скачать бесплатно? Зарегистрируйтесь на сайте (ссылка на регистрацию). Pirat.ca - самый быстрый торрент трекер в рунете!

Как скачивать  ·   Что такое торрент  ·   Рейтинг и ограничения



Последний раз редактировалось: Фтещт (2012-11-18 19:59), всего редактировалось 3 раз(а)

Фтещт ®

Корсар

61

Пост 17-Ноя-2012 20:42 (спустя 2 минуты)

[Q] 

Это самый лучший и реалистичный фильм о пиратах который я смотрел, рекомендую всем ценителям пиратства не приправленного голивудским гламуром
[Профиль]  [ЛС] 

posol_KoW

Шкипер

99

Пост 17-Ноя-2012 23:57 (спустя 3 часа)

[Q] 

спасибо, с удовольствием посмотрю
[Профиль]  [ЛС] 

трактор1224

Морской Волк

Пост 18-Ноя-2012 09:45 (спустя 9 часов)

[Q] 


_________________
ну вы блин даёте....
[Профиль]  [ЛС] 

Фтещт ®

Корсар

61

Пост 18-Ноя-2012 19:13 (спустя 9 часов)

[Q] 

перезалито, перекачайте плиз
[Профиль]  [ЛС] 

Фтещт ®

Корсар

61

Пост 18-Ноя-2012 20:07 (спустя 53 минуты)

[Q] 

ура, мне дали новое звание за мое спамерство!!!
[Профиль]  [ЛС] 

Пост 19-Ноя-2012 10:52 (спустя 14 часов)

Топик был перенесен из форума Зарубежные сериалы (Трюм) в форум Зарубежные сериалы

Андря
 

Panda102

Штурман

104

Пост 29-Дек-2012 01:14 (спустя 1 месяц 10 дней)

[Q] 

Единственный фильм о пиратах, что мне нравится больше этого - советская версия Капитана Блада.
Это превосходный просто фильм!
[Профиль]  [ЛС] 

brazilierro

Штурман

Пост 02-Фев-2014 17:53 (спустя 1 год 1 месяц)

[Q] 

Заинтригован, качаю! Раздающему респект!
[Профиль]  [ЛС] 
Показать сообщения:    
Ответить на тему

Текущее время: Сегодня 02:03

Часовой пояс: GMT + 4



Вы не можете начинать темы
Вы не можете отвечать на сообщения
Вы не можете редактировать свои сообщения
Вы не можете удалять свои сообщения
Вы не можете голосовать в опросах
Вы не можете прикреплять файлы к сообщениям
Вы не можете скачивать файлы

▼ Вниз