ML
     
  Уважаемый Гость!
Вы можете поддержать проект и зарегистрироваться у наших партнеров - онлайн-стратегия MyLands. При регистрации в игре Вы получите код, который сможете активировать после регистрации на pirat.ca и получить 1000 дублонов.

Ваш код:
fcd618d94adc1456bccbde5047c9cd0930e4ae4d
 
     

Теория Большого Взрыва / The Big bang Theory (Сезон: 6 / Серии: 1-24 из 24) (Марк Сендроуски, Питер Чакос / Mark Cendrowski, Peter Chakos) [2012 г., ситуационная комедия, HDTVRip] VO По версии Кураж-Бамбей

Страницы :   Пред.  1, 2, 3, 4  След.

Ответить на тему
 
Автор
Сообщение

$ieJOKER ®

Гроза морей

2333

Пост 06-Дек-2012 01:25

[Q] 

-Теория Большого Взрыва / The Big bang Theory -- Производство: США CBS
Жанр: ситуационная комедия
Год выпуска: 2012 г.
Продолжительность: 00:21:07
Перевод:Любительский (одноголосый, закадровый)
Оригинальный аудиопоток: английский
Режиссер: Марк Сендроуски, Питер Чакос / Mark Cendrowski, Peter Chakos-В ролях:
  • Джим Парсонс / Jim Parsons (Sheldon),
  • Джонни Галекки / Johnny Galecki (Leonard),
  • Кейли Куоко / Kaley Cuoco (Penny),
  • Саймон Хельберг / Simon Helberg (Howard Wolowitz),
  • Кунал Найяр / Kunal Nayyar (Rajesh Koothrappali)-Описание: Два блестящих физика, Леонард и Шелдон, «великие умы», которые понимают как «работает вселенная». Но их гениальность ничуть не помогает им общаться с людьми, особенно с женщинами. Всё начинает меняться, когда напротив них поселяется красавица Пенни. Когда Леонард и Шелдон встречают Пенни, Леонард сразу же начинает интересоваться ею. Он видит в общении с Пенни огромную перспективу… вплоть до любви, однако Шелдон понимает, что мечтам его друга не суждено сбыться. Стоит также отметить пару странных друзей этих физиков: Воловиц, который любит употреблять фразы на разных языках, включая русский, и Раджеш Кутраппали, теряющий дар речи при виде женщин.-
    Качество видео: HDTVRip
    Формат видео: avi
    Видео кодек: XVID
    Аудио кодек: MPEG Audio
    Видео: 656 x 358 (1.85:1) 1 017 Kbps 23.976 fps
    Аудио: 160 Kbps 2 channels 48.0 KHz
    Cубтитры: отсутствуют
Имя файла: The.Big.Bang.Theory.S06E08.HDTV.Kuraj-Bambey.Rus.avi
Формат файла: .avi (AVI)
Размер файла: 183.19 MB
Длительность: 21mn 34s
Навигация по главам: Нет
Bitrate (все потоки): 1 187 Kbps
...с использованием: VirtualDub-MPEG2 build 24586/release
Название: The.Big.Bang.Theory.S06E08.HDTV.Kuraj-Bambey.Rus
Тип потока: Видео
Длительность: 00:21:34
Кодек: MPEG-4 Visual
Кодек/Профиль: Advanced [email protected]
Кодек/ID: XVID
Размеры изображения: 656 x 358 (1.85:1)
Частота кадров: 23.976 fps
Размер потока: 157 MiB (86%)
Битрейт: 1 017 Kbps
Библиотека кодирования: XviD 64
Цветовое пространство: YUV
Тип развёртки: Progressive
Глубина: 8 bits
Тип потока: Звук #1
Длительность: 00:21:34.872
Кодек: MPEG Audio
Кодек/Профиль: Layer 3
Кодек/ID: 55
Частота дискретизации: 48.0 KHz
Каналов: 2 channels
Битрейт: 160 Kbps
Битрейт/тип: Constant
Размер потока: 24.7 MiB (13%)
Метод сжатия: Lossy

_________________
Раздачи веду до первых сидов.


Последний раз редактировалось: $ieJOKER (2013-05-29 03:19), всего редактировалось 21 раз(а)
[Профиль]  [ЛС] 

fdooch

Лоцман

Пост 31-Янв-2013 14:53 (спустя 1 месяц 25 дней)

[Q] 

14-я серия только сегодня выходит в эфир
http://www.imdb.com/title/tt0898266/episodes?year=2..._=tt_eps_yr_2013
[Профиль]  [ЛС] 

DHARMEEDONT

Флибустьер

Пост 02-Фев-2013 01:45 (спустя 1 день 10 часов)

[Q] 

[Профиль]  [ЛС] 

$ieJOKER ®

Гроза морей

2333

Пост 04-Фев-2013 04:59 (спустя 2 дня 3 часа)

[Q] 

Торрент обновлен, добавлена 14 серия.
Приятного просмотра.

_________________
Раздачи веду до первых сидов.
[Профиль]  [ЛС] 

eevgenu45

Морской Волк

Пост 07-Фев-2013 18:11 (спустя 3 дня)

[Q] 

Ехо-хо
[Профиль]  [ЛС] 

beetle

Морской Волк

Пост 09-Фев-2013 00:36 (спустя 1 день 6 часов)

[Q] 

[Профиль]  [ЛС] 

holdemkolfild

Штурман

Пост 10-Фев-2013 19:46 (спустя 1 день 19 часов)

[Q] 

Спасибо! Скорости!)
[Профиль]  [ЛС] 

$ieJOKER ®

Гроза морей

2333

Пост 10-Фев-2013 21:59 (спустя 2 часа 12 минут)

[Q] 

321467Спасибо! Скорости!)
6 мбайт канал стоит свободный, качайте

_________________
Раздачи веду до первых сидов.
[Профиль]  [ЛС] 

mazadrive

Шкипер

Пост 10-Фев-2013 23:40 (спустя 1 час 41 минута)

[Q] 

как там 15я поживает?
[Профиль]  [ЛС] 

$ieJOKER ®

Гроза морей

2333

Пост 15-Фев-2013 00:37 (спустя 4 дня)

[Q] 

Торрент обновлен, добавлена 15 серия.
Приятного просмотра.

_________________
Раздачи веду до первых сидов.
[Профиль]  [ЛС] 

serafim7

Корсар

99

Пост 15-Фев-2013 23:30 (спустя 22 часа)

[Q] 

[Профиль]  [ЛС] 

Placsa69

Шкипер

Пост 18-Фев-2013 17:15 (спустя 2 дня 17 часов)

[Q] 

когда?
[Профиль]  [ЛС] 

$ieJOKER ®

Гроза морей

2333

Пост 19-Фев-2013 01:50 (спустя 8 часов)

[Q] 

Торрент обновлен, добавлена 16 серия.
Приятного просмотра.

_________________
Раздачи веду до первых сидов.
[Профиль]  [ЛС] 

UGR

Морской Волк

Пост 24-Фев-2013 22:47 (спустя 5 дней)

[Q] 

[Профиль]  [ЛС] 

$ieJOKER ®

Гроза морей

2333

Пост 24-Фев-2013 23:54 (спустя 1 час 6 минут)

[Q] 

Торрент обновлен, добавлена 17 серия.
Приятного просмотра.

_________________
Раздачи веду до первых сидов.
[Профиль]  [ЛС] 

antonik

Морской Волк

Пост 25-Фев-2013 00:39 (спустя 45 минут)

[Q] 


_________________
Подпись отключена за нарушение правил форума
[Профиль]  [ЛС] 

Olegicus

Шкипер

Пост 26-Фев-2013 19:29 (спустя 1 день 18 часов)

[Q] 

Спасибо
[Профиль]  [ЛС] 

megavolt80

Лоцман

Пост 05-Мар-2013 23:16 (спустя 7 дней)

[Q] 

[Профиль]  [ЛС] 

saman

Штурман

Пост 06-Мар-2013 22:54 (спустя 23 часа)

[Q] 

что-то серии давно нет новой.
[Профиль]  [ЛС] 

$ieJOKER ®

Гроза морей

2333

Пост 06-Мар-2013 23:07 (спустя 13 минут)

[Q] 

saman, уж простите, нет еще ничего увы

_________________
Раздачи веду до первых сидов.
[Профиль]  [ЛС] 

$ieJOKER ®

Гроза морей

2333

Пост 11-Мар-2013 04:49 (спустя 4 дня)

[Q] 

Торрент обновлен, добавлена 18 серия.
Приятного просмотра.

_________________
Раздачи веду до первых сидов.
[Профиль]  [ЛС] 

san89san86

Морской Волк

Пост 11-Мар-2013 06:38 (спустя 1 час 49 минут)

[Q] 

[Профиль]  [ЛС] 

NIKROLUNGER

Флибустьер

60

Пост 11-Мар-2013 16:57 (спустя 10 часов)

[Q] 

$ieJOKER, огромная благодарность за раздачу aa
[Профиль]  [ЛС] 

buzz113

Лоцман

Пост 11-Мар-2013 19:21 (спустя 2 часа 23 минуты)

[Q] 

[Профиль]  [ЛС] 

SMBdie

Штурман

Пост 14-Мар-2013 22:21 (спустя 3 дня)

[Q] 

[Профиль]  [ЛС] 

gis

Корсар

Пост 16-Мар-2013 12:41 (спустя 1 день 14 часов)

[Q] 

[Профиль]  [ЛС] 

eevgenu45

Морской Волк

Пост 19-Мар-2013 08:40 (спустя 2 дня 19 часов)

[Q] 

оч хочется 19 серии cs
[Профиль]  [ЛС] 

$ieJOKER ®

Гроза морей

2333

Пост 21-Мар-2013 00:08 (спустя 1 день 15 часов)

[Q] 

Торрент обновлен, добавлена 19 серия.
Приятного просмотра.

_________________
Раздачи веду до первых сидов.
[Профиль]  [ЛС] 

kokos2112

Морской Волк

Пост 21-Мар-2013 02:40 (спустя 2 часа 31 минута)

[Q] 

[Профиль]  [ЛС] 

elf

Лоцман

Пост 21-Мар-2013 13:48 (спустя 11 часов)

[Q] 

спасибо!)

_________________
psypi.com - Система поиска в интернет.
[Профиль]  [ЛС] 

eevgenu45

Морской Волк

Пост 21-Мар-2013 23:03 (спустя 9 часов)

[Q] 

спасиб)
[Профиль]  [ЛС] 
Показать сообщения:    
Ответить на тему

Текущее время: Сегодня 12:52

Часовой пояс: GMT + 4



Вы не можете начинать темы
Вы не можете отвечать на сообщения
Вы не можете редактировать свои сообщения
Вы не можете удалять свои сообщения
Вы не можете голосовать в опросах
Вы не можете прикреплять файлы к сообщениям
Вы не можете скачивать файлы

▼ Вниз