ML
     
  Уважаемый Гость!
Вы можете поддержать проект и зарегистрироваться у наших партнеров - онлайн-стратегия MyLands. При регистрации в игре Вы получите код, который сможете активировать после регистрации на pirat.ca и получить 1000 дублонов.

Ваш код:
5f4e94775bc0501caff7b254e79328d304c817d9
 
     

Теория Большого Взрыва / The Big bang Theory (Сезон: 6 / Серии: 1-24 из 24) (Марк Сендроуски, Питер Чакос / Mark Cendrowski, Peter Chakos) [2012 г., ситуационная комедия, HDTVRip] VO По версии Кураж-Бамбей

Страницы :   Пред.  1, 2, 3, 4

Ответить на тему
 
Автор
Сообщение

$ieJOKER ®

Гроза морей

2333

Пост 06-Дек-2012 01:25

[Q] 

-Теория Большого Взрыва / The Big bang Theory -- Производство: США CBS
Жанр: ситуационная комедия
Год выпуска: 2012 г.
Продолжительность: 00:21:07
Перевод:Любительский (одноголосый, закадровый)
Оригинальный аудиопоток: английский
Режиссер: Марк Сендроуски, Питер Чакос / Mark Cendrowski, Peter Chakos-В ролях:
  • Джим Парсонс / Jim Parsons (Sheldon),
  • Джонни Галекки / Johnny Galecki (Leonard),
  • Кейли Куоко / Kaley Cuoco (Penny),
  • Саймон Хельберг / Simon Helberg (Howard Wolowitz),
  • Кунал Найяр / Kunal Nayyar (Rajesh Koothrappali)-Описание: Два блестящих физика, Леонард и Шелдон, «великие умы», которые понимают как «работает вселенная». Но их гениальность ничуть не помогает им общаться с людьми, особенно с женщинами. Всё начинает меняться, когда напротив них поселяется красавица Пенни. Когда Леонард и Шелдон встречают Пенни, Леонард сразу же начинает интересоваться ею. Он видит в общении с Пенни огромную перспективу… вплоть до любви, однако Шелдон понимает, что мечтам его друга не суждено сбыться. Стоит также отметить пару странных друзей этих физиков: Воловиц, который любит употреблять фразы на разных языках, включая русский, и Раджеш Кутраппали, теряющий дар речи при виде женщин.-
    Качество видео: HDTVRip
    Формат видео: avi
    Видео кодек: XVID
    Аудио кодек: MPEG Audio
    Видео: 656 x 358 (1.85:1) 1 017 Kbps 23.976 fps
    Аудио: 160 Kbps 2 channels 48.0 KHz
    Cубтитры: отсутствуют
Имя файла: The.Big.Bang.Theory.S06E08.HDTV.Kuraj-Bambey.Rus.avi
Формат файла: .avi (AVI)
Размер файла: 183.19 MB
Длительность: 21mn 34s
Навигация по главам: Нет
Bitrate (все потоки): 1 187 Kbps
...с использованием: VirtualDub-MPEG2 build 24586/release
Название: The.Big.Bang.Theory.S06E08.HDTV.Kuraj-Bambey.Rus
Тип потока: Видео
Длительность: 00:21:34
Кодек: MPEG-4 Visual
Кодек/Профиль: Advanced [email protected]
Кодек/ID: XVID
Размеры изображения: 656 x 358 (1.85:1)
Частота кадров: 23.976 fps
Размер потока: 157 MiB (86%)
Битрейт: 1 017 Kbps
Библиотека кодирования: XviD 64
Цветовое пространство: YUV
Тип развёртки: Progressive
Глубина: 8 bits
Тип потока: Звук #1
Длительность: 00:21:34.872
Кодек: MPEG Audio
Кодек/Профиль: Layer 3
Кодек/ID: 55
Частота дискретизации: 48.0 KHz
Каналов: 2 channels
Битрейт: 160 Kbps
Битрейт/тип: Constant
Размер потока: 24.7 MiB (13%)
Метод сжатия: Lossy

_________________
Раздачи веду до первых сидов.


Последний раз редактировалось: $ieJOKER (2013-05-29 03:19), всего редактировалось 21 раз(а)
[Профиль]  [ЛС] 

bonaqua

Лоцман

Пост 25-Май-2013 09:27 (спустя 5 месяцев 19 дней)

[Q] 

373872
373328
371624Кто не смотрел, смотрите с первого сезона. Хорошое настроение и море удовольствия гарантированы :)
Вот и закончился 6 сезон :( О 7 сезоне что нибудь слышно?
24 же еще нет?
это в раздаче нет) а так она 16 числа вышла ещё
Это я знаю, на кинопоиске видел, проста раздачи с переводом от куража не видел. Думал может где есть, кто просветит меня :)
[Профиль]  [ЛС] 

elf

Лоцман

Пост 28-Май-2013 13:00 (спустя 3 дня)

[Q] 


_________________
psypi.com - Система поиска в интернет.
[Профиль]  [ЛС] 

dzirt85

Лоцман

Пост 28-Май-2013 18:09 (спустя 5 часов)

[Q] 

Когда будет 24 серия?
[Профиль]  [ЛС] 

$ieJOKER ®

Гроза морей

2333

Пост 29-Май-2013 03:17 (спустя 9 часов)

[Q] 

Торрент обновлен, добавлена 24 серия.
Приятного просмотра.

_________________
Раздачи веду до первых сидов.
[Профиль]  [ЛС] 

Пост 29-Май-2013 10:14 (спустя 6 часов)

Топик был перенесен из форума Сериалы в эфире в форум Зарубежные сериалы

kugesan
 

tampliere

Шкипер

6

Пост 29-Май-2013 10:17 (спустя 6 часов)

[Q] 

[Профиль]  [ЛС] 

SaddamHusein

Лоцман

Пост 03-Июн-2013 21:25 (спустя 5 дней)

[Q] 

насчет переноса в другой раздел:
Блин, ну нельзя так шутить... Стояла в закладках страница с трюмом, ждал 24 серию. А тут раздача вообще пропала. Это было... ну как серпом по .....
А тут после пива решил поиском поискать и нашлось....
Спасибо, переводчику, релизеру, трекеру и всем поддерживающим раздачу.
Наилучших пожеланий всем зрителям биг бэнга. До встречи в новом сезоне (если не закроют).
[Профиль]  [ЛС] 

$ieJOKER ®

Гроза морей

2333

Пост 06-Июн-2013 15:16 (спустя 2 дня 17 часов)

[Q] 

SaddamHusein<wbr>, в таких случаях надо держать ссылку на саму тему в закладках держать)

_________________
Раздачи веду до первых сидов.
[Профиль]  [ЛС] 

EvaMari

Штурман

Пост 07-Июн-2013 19:33 (спустя 1 день 4 часа)

[Q] 

[Профиль]  [ЛС] 

natinetta

Лоцман

Пост 24-Июн-2013 20:53 (спустя 17 дней)

[Q] 

супер! спасибо!!!!!!
очень хочется увидеть 7 сезон
где можног узнать про него информацию?
[Профиль]  [ЛС] 

$ieJOKER ®

Гроза морей

2333

Пост 28-Июн-2013 02:46 (спустя 3 дня)

[Q] 

387057где можног узнать про него информацию?
http://www.cbs.com/shows/big_bang_theory/

_________________
Раздачи веду до первых сидов.
[Профиль]  [ЛС] 

vasy_pypkin

Лоцман

Пост 10-Авг-2013 13:35 (спустя 1 месяц 12 дней)

[Q] 

а будут руские сабы ?
[Профиль]  [ЛС] 

john_ricko

Морской Волк

80

Пост 24-Авг-2013 01:52 (спустя 13 дней)

[Q] 

Неделю уже смотрю с 1-ого сезона, затянуло) Спасибо!!! Пиратка рулит!
[Профиль]  [ЛС] 

romushka

Штурман

Пост 04-Янв-2014 14:05 (спустя 4 месяца 11 дней)

[Q] 

Пасиб! Отличный сериал!!! Бомбей рулит!!!
[Профиль]  [ЛС] 

ALARM_45

Лоцман

Пост 12-Янв-2014 22:06 (спустя 8 дней)

[Q] 

Спасибо!!! Супер!
[Профиль]  [ЛС] 

Fenix666

Шкипер

Пост 23-Апр-2014 23:19 (спустя 3 месяца 11 дней)

[Q] 

Оригинальный аудиопоток: английский не замечено
[Профиль]  [ЛС] 
Показать сообщения:    
Ответить на тему

Текущее время: Сегодня 15:33

Часовой пояс: GMT + 4



Вы не можете начинать темы
Вы не можете отвечать на сообщения
Вы не можете редактировать свои сообщения
Вы не можете удалять свои сообщения
Вы не можете голосовать в опросах
Вы не можете прикреплять файлы к сообщениям
Вы не можете скачивать файлы

▼ Вниз