ML
     
  Уважаемый Гость!
Вы можете поддержать проект и зарегистрироваться у наших партнеров - онлайн-стратегия MyLands. При регистрации в игре Вы получите код, который сможете активировать после регистрации на pirat.ca и получить 1000 дублонов.

Ваш код:
500cb7bd8d2cec9a8aba647a87ce41c4b76f06bd
 
     

Женаты и с детьми 1 сезон / Married With Children (Зейн Базби (Zane Buzby) Джерри Коэн (Gerry Cohen) Линда Дэй (Linda Day)) [1987 г., Комедийный сериал, DVDRip] (Dub)

Ответить на тему
 
Автор
Сообщение

Пост 16-Дек-2011 22:29

[Q] 

alexandr.x79

Корсар

Женаты и с детьми 1 сезон / Married With Children
Год выпуска: 1987
Мировая премьера: 5 апреля 1987,
Производство: США
Жанр: Комедийный сериал
Продолжительность: 00:22:00
Перевод: Дубляж
Оригинальный аудиопоток: Английский
Режиссер: Зейн Базби (Zane Buzby) Джерри Коэн (Gerry Cohen) Линда Дэй (Linda Day)
В ролях: Эд О’Нил, Кэти Сагал, Тина Каспари, Хантер Карсон, Дэвид Гаррисон, Аманда Бирз, Рич Шиднер, Кристина Эпплгейт, Дэвид Фаустино.
Описание: Почти двадцать лет прожили вместе Пэгги и Эл бок о бок, что называется, и в горе, и в радости. Построили дом, посадили дерево, вырастили двух отпрысков: дочку Келли и сына Бада.
Однако, несмотря на то, что супруги изучили друг друга вдоль и поперек, каждый день оборачивается для них смешными сюрпризами и неразберихами. К тому же, в один прекрасный день соседями семейства Банди становятся Мэрси и Стив Роадсы, на первый взгляд, представляющие собой идеальную пару…
Доп. информация: в середине пилотной серии отсутствует перевод
IMDB, КиноПоиск
Источник/Качество: DVDRip
Формат: AVI
Видео кодек: XviD
Аудио кодек: MP3
Видео: 576x432 (1.33:1), 29.970 fps, XviD MPEG-4 ~1289 kbps avg, 0.17 bit/pixel
Аудио: 1: 48 kHz, MPEG Layer 3, 2 ch, ~128.00 kbps avg - Russian
Аудио #2: 2: 0.040 kHz, , 30820 ch, ~0.03 kbps avg - English
Аудио #3: нет
Субтитры: английский
Формат : AVI
Формат/Информация : Audio Video Interleave
Профиль формата : OpenDML
Настройки формата : rec
Размер файла : 251 Мбайт
Продолжительность : 22 м.
Режим общего битрейта : Переменный
Общий поток : 1534 Кбит/сек
Название фильма : Season 1, Episode 1: Pilot
Программа кодирования : AVI-Mux GUI 1.17.7, Aug 8 2006 20:59:17
Видео
Идентификатор : 0
Формат : MPEG-4 Visual
Параметр BVOP формата : Нет
Параметр QPel формата : Нет
Параметр GMC формата : Без точки перехода
Параметр матрицы формата : Default (H.263)
Идентификатор кодека : XVID
Идентификатор кодека/Подсказка : XviD
Продолжительность : 22 м.
Битрейт : 1282 Кбит/сек
Ширина : 576 пикселей
Высота : 432 пикселя
Соотношение сторон : 4:3
Частота кадров : 29,970 кадров/сек
Цветовое пространство : YUV
Субдискретизация насыщенности : 4:2:0
Битовая глубина : 8 бит
Тип развёртки : Прогрессивная
Метод сжатия : С потерями
Бит/(Пиксели*Кадры) : 0.172
Размер потока : 210 Мбайт (84%)
Заголовок : Season 1, Episode 1: Pilot
Аудио #1
Идентификатор : 1
Формат : MPEG Audio
Версия формата : Version 1
Профиль формата : Layer 3
Режим : Joint stereo
Расширение режима : MS Stereo
Идентификатор кодека : 55
Идентификатор кодека/Подсказка : MP3
Продолжительность : 22 м.
Вид битрейта : Постоянный
Битрейт : 128 Кбит/сек
Каналы : 2 канала
Частота : 48,0 КГц
Метод сжатия : С потерями
Размер потока : 20,9 Мбайт (8%)
Выравнивание : Соединение по промежуткам
Продолжительность промежутка : 24 мс. (0,72 видеокадр)
Время предзагрузки промежутка : 192 мс.
Заголовок : Russian
Аудио #2
Идентификатор : 2
Формат : MPEG Audio
Версия формата : Version 1
Профиль формата : Layer 3
Режим : Joint stereo
Идентификатор кодека : 55
Идентификатор кодека/Подсказка : MP3
Продолжительность : 22 м.
Вид битрейта : Переменный
Битрейт : 108 Кбит/сек
Номинальный битрейт : 128 Кбит/сек
Каналы : 2 канала
Частота : 48,0 КГц
Метод сжатия : С потерями
Размер потока : 17,6 Мбайт (7%)
Выравнивание : Соединение по промежуткам
Продолжительность промежутка : 24 мс. (0,72 видеокадр)
Время предзагрузки промежутка : 177 мс.
Заголовок : English
Библиотека кодирования : LAME3.92
Настройки программы : -m j -V 0 -q 2 -lowpass 15.3 --abr 128
Текст
Идентификатор : 3
Размер потока : 33,4 Кбайт (0%)
Download / Скачать

Хотите скачать бесплатно? Зарегистрируйтесь на сайте (ссылка на регистрацию). Pirat.ca - самый быстрый торрент трекер в рунете!

Как скачивать  ·   Что такое торрент  ·   Рейтинг и ограничения

Пост 17-Дек-2011 08:21 (спустя 9 часов)

Топик был перенесен из форума Сериалы в форум Зарубежные сериалы

gEmOkPaT
 
Показать сообщения:    
Ответить на тему

Текущее время: Сегодня 01:50

Часовой пояс: GMT + 4



Вы не можете начинать темы
Вы не можете отвечать на сообщения
Вы не можете редактировать свои сообщения
Вы не можете удалять свои сообщения
Вы не можете голосовать в опросах
Вы не можете прикреплять файлы к сообщениям
Вы не можете скачивать файлы

▼ Вниз