ML
     
  Уважаемый Гость!
Вы можете поддержать проект и зарегистрироваться у наших партнеров - онлайн-стратегия MyLands. При регистрации в игре Вы получите код, который сможете активировать после регистрации на pirat.ca и получить 1000 дублонов.

Ваш код:
0af2e2107bc9b5dd5ac2c09f9fc25e1a77c43887
 
     

Спартак: Боги Арены / Spartacus: Gods of the Arena / Сезон: Приквел / Серии: 1-6 из 6 (Рик Джейкобсон / Rick Jacobson) [2011 г., историческая драма, HDRip] [LostFilm] MVO [Sub Eng, + Original (Eng)]

Ответить на тему
 
Автор
Сообщение

Пост 08-Янв-2013 19:04

[Q] 

reliz82

Шкипер

-Спартак: Боги Арены / Spartacus: Gods of the Arena / LostFilm-- Производство: США
Жанр: историческая драма
Год выпуска: 2011 г.
Продолжительность: ~ 00:55:
Мировая премьера: 21 января 2011
Перевод: Профессиональный (многоголосый, закадровый)
Оригинальный аудиопоток: английский/русский
Режиссер: Рик Джейкобсон/Rick Jacobson-В ролях: Лесли-Энн Брандт, Люси Лоулесс, Джессика Грэйс Смит, Ник Тарабэй, Райхо Василев, Мариса Рамирез, Ману Беннетт, Дастин Клер, Джон Ханна, Питер Менса и др.-Описание: У каждой истории есть своя предыстория. В сериале "Спартак: Боги Арены" мы увидим события, предшествующие появлению Спартака: Батиат лишь делает первые шаги на поприще главы собственного лудуса. Молодой чемпион Ганник начинает завоёвывать сердца жителей Капуи, чтобы пробиться в когорту лучших из лучших.- Качество видео: HDRip
Формат видео: AVI
Видео кодек: XviD
Аудио кодек: AC3
Видео: 720х400 (1.80), 23.976 fps, XviD MPEG-4, ~1929 kbps, 0.28 bit/pixel
Аудио 1: 48 kHz, AC3 Dolby Digital, 3/2 (L,C,R,l,r) + LFE ch, ~384.00 kbps avg
Аудио 2: 48 kHz, AC3 Dolby Digital, 3/2 (L,C,R,l,r) + LFE ch, ~384.00 kbps avg
Cубтитры: английские
Формат субтитров: softsub (SRT)
Доп. информация о субтитрах: есть (Английские / Русские + (на места без озвучки.) *.srt)
General
Complete name : E:\Spartacus. Gods of the Arena - S01 - [HDRip] (LostFilm)\Spartacus.Gods.of.the.Arena.Part1.HDRip.XviD.AC3.-SVM.avi
Format : AVI
Format/Info : Audio Video Interleave
File size : 1 024 MiB
Duration : 52mn 48s
Overall bit rate : 2 711 Kbps
Writing application : VirtualDubMod 1.5.10.2 (build 2540/release)
Writing library : VirtualDubMod build 2540/release
Video
ID : 0
Format : MPEG-4 Visual
Format profile : Advanced [email protected]
Format settings, BVOP : 2
Format settings, QPel : No
Format settings, GMC : No warppoints
Format settings, Matrix : Default (MPEG)
Muxing mode : Packed bitstream
Codec ID : XVID
Codec ID/Hint : XviD
Duration : 52mn 48s
Bit rate : 1 929 Kbps
Width : 720 pixels
Height : 400 pixels
Display aspect ratio : 16:9
Frame rate : 23.976 fps
Resolution : 8 bits
Colorimetry : 4:2:0
Scan type : Progressive
Bits/(Pixel*Frame) : 0.279
Stream size : 728 MiB (71%)
Writing library : XviD 1.2.1 (UTC 2008-12-04)
Audio #1
ID : 1
Format : AC-3
Format/Info : Audio Coding 3
Codec ID : 2000
Duration : 52mn 48s
Bit rate mode : Constant
Bit rate : 384 Kbps
Channel(s) : 6 channels
Channel positions : Front: L C R, Surround: L R, LFE
Sampling rate : 48.0 KHz
Stream size : 145 MiB (14%)
Alignment : Split accross interleaves
Interleave, duration : 42 ms (1.00 video frame)
Interleave, preload duration : 500 ms
Audio #2
ID : 2
Format : AC-3
Format/Info : Audio Coding 3
Codec ID : 2000
Duration : 52mn 48s
Bit rate mode : Constant
Bit rate : 384 Kbps
Channel(s) : 6 channels
Channel positions : Front: L C R, Surround: L R, LFE
Sampling rate : 48.0 KHz
Stream size : 145 MiB (14%)
Alignment : Split accross interleaves
Interleave, duration : 42 ms (1.00 video frame)
Interleave, preload duration : 500 ms
Download / Скачать

Хотите скачать бесплатно? Зарегистрируйтесь на сайте (ссылка на регистрацию). Pirat.ca - самый быстрый торрент трекер в рунете!

Как скачивать  ·   Что такое торрент  ·   Рейтинг и ограничения

Mixrool

Корсар

Пост 08-Янв-2013 22:29 (спустя 3 часа)

[Q] 

В качестве! радостно!
[Профиль]  [ЛС] 

Геннадий

Морской Волк

Пост 09-Янв-2013 01:56 (спустя 3 часа)

[Q] 

Сериал вообще жуть
[Профиль]  [ЛС] 

reliz82 ®

Шкипер

49

Пост 09-Янв-2013 19:42 (спустя 17 часов)

[Q] 

Надеюсь, что раздача вам понравится
[Профиль]  [ЛС] 

kisu

Гроза морей

Пост 15-Мар-2013 11:42 (спустя 2 месяца 5 дней)

[Q] 

раздающие!!!аааууууууу!!!!
[Профиль]  [ЛС] 

Zha-pol

Легенда

Пост 18-Май-2013 22:41 (спустя 2 месяца 3 дня)

[Q] 


_________________
[Профиль]  [ЛС] 

янка-сан

Гроза морей

Пост 18-Дек-2015 19:47 (спустя 2 года 6 месяцев)

[Q] 

спасибо Лови бочку
[Профиль]  [ЛС] 
Показать сообщения:    
Ответить на тему

Текущее время: Сегодня 00:07

Часовой пояс: GMT + 4



Вы не можете начинать темы
Вы не можете отвечать на сообщения
Вы не можете редактировать свои сообщения
Вы не можете удалять свои сообщения
Вы не можете голосовать в опросах
Вы не можете прикреплять файлы к сообщениям
Вы не можете скачивать файлы

▼ Вниз