ML
     
  Уважаемый Гость!
Вы можете поддержать проект и зарегистрироваться у наших партнеров - онлайн-стратегия MyLands. При регистрации в игре Вы получите код, который сможете активировать после регистрации на pirat.ca и получить 1000 дублонов.

Ваш код:
a01a592a88af5f9996a6d1baec61b18a1769954d
 
     

Дживс и Вустер / Jeeves and Wooster / Серии 1-23 (Роберт Янг / Robert Young, Саймон Лэнгтон / Simon Langton, Фердинанд Фейрфакс / Ferdinand Fairfax) [1990 - 1993 гг., комедия положений, TVRip]

Ответить на тему
 
Автор
Сообщение

Пост 18-Янв-2013 02:44

[Q] 

persia07

Морской Волк

-Дживс и Вустер / Jeeves and Wooster-- Производство: Великобритания, ITV
Жанр: комедия положений
Год выпуска: 1990 - 1993 гг.
Продолжительность: 00:50:00
Мировая премьера: с 22 апреля 1990
Российская премьера: 1993
Перевод: Профессиональный (многоголосый, закадровый)
Режиссеры: Роберт Янг / Robert Young (Сезон 1), Саймон Лэнгтон / Simon Langton (Сезон 2), Фердинанд Фейрфакс / Ferdinand Fairfax (Сезон 3,4)
Описание: Сюжет всех серий примерно одинаков: Бертрам Уилберфорс (Берти) Вустер — британский аристократ образца первой половины XX века постоянно ищет приключений на широко известное проктологам место — решает жениться/решает не жениться/получает пиз..лей от тёти/съё..вается в неизвестном направлении, чтобы не получить пиз..лей от тёти; помогает друзьям жениться/не жениться/не получить от кого-то пиз..лей, ну и т. д. и т. п. В силу природной кривости рук и абсолютной прямоты единственной извилины, примерно к середине серии Берти поджидает былинный отказ. Вот тут и вступает в игру его холоп камердинер Реджинальд Дживс, который тут же придумывает гениальное решение появившейся проблемы, попутно зачастую тролля сэра по поводу абсолютного отсутствия у того (по мнению Дживса) вкуса в одежде и — разумеется, более тонко, — на предмет общего долб..бизма. Методы претворения Реджинальдом плана в жизнь подчас вызывают у Вустера разрыв шаблона, духовную и даже физическую боль, зато остальные участники феерии довольны умницей камердинером. Всё довольно незамысловато, но выделяется из общей массы за счёт отличной актерской игры, ярких костюмов и действительно смешных и элегантных шуток.-
Стивен Фрай — Ре́джинальд (Реджи) Дживс
Хью Лори — Бертрам (Берти) Вустер
Мэри Уимбуш (1—3 сезон), Элизабет Сприггс (4 сезон) — тётушка Агата Грегсон
Франческа Фолан (1 сезон), Диана Блэкбёрн (2 сезон), Элизабет Мортон (3—4 сезон) — Мадлен Бассет
Джон Вуднатт — сэр Уоткин Бассет
Шарлотта Аттенборо (2, 4 сезон), Аманда Харрис (3 сезон) — Стефани (Стиффи) Бинг
Фиона Гиллис (3 сезон), Франческа Фолан (4 сезон) — леди Флоренс Крей
Бренда Брюс (1 сезон), Вивиан Пиклз (2 сезон), Патрисия Лоуренс (3 сезон), Джин Хейвуд (4 сезон) — тётушка Дэлия Трэверс
Ричард Гарнет (1—2 сезон), Ричард Брейн (3—4 сезон) — Августус (Гасси) Финк-Нотл — большой знаток тритонов
Элизабет Кеттл (1—2, 4 сезон) — Гонория Глоссоп
Роджер Брирли (1—2 сезон), Филип Лок (4 сезон) — сэр Родерик Глоссоп
Роберт Доус — Хильдебранд (Таппи) Глоссоп
Джон Тёрнер (1—4 сезон) — Родерик Споуд
Кэмбелл Моррисон (2 сезон), Стюарт Харвуд (3 сезон), Сидни Ливингстон (4 сезон) — констебль Оутс
Майкл Сиберри (1—2 сезон), Пип Торренс (3—4 сезон) — Ричард (Бинго) Литтл
Саймон Тревис — викарий Гарольд Стинкер-Пинкер
Анастасия Хилл (4 сезон) — Рози М. Бэнгс
Ральф Майкл (1, 4 сезон) — Том Трэверс
Розалин Найт (1, 4 сезон) — леди Дафна Уинворд
Адам Блеквуд (1 сезон), Мартин Клунис (2 сезон) — Барми Фотерингей-Фиппс
Джейн Даунс (1, 2 сезон) — леди Глоссоп
Фрэд Эванс (2, 4 сезон) — Бринкли
Ричард Брейн (1 сезон) — Руперт Стегглз

Качество видео: TVRip
Формат видео: AVI
Видео кодек: XVID
Аудио кодек: AC-3
Видео 1: XviD, ~1696 Кбит/сек, 720х552, 4:3. 25,000 кадров/сек, 8 бит, ~0.171 Бит/Пиксел
Видео 2: XviD, ~1719 Кбит/сек, 720х550, 4:3. 25,000 кадров/сек, 8 бит, ~0.171 Бит/Пиксел
Аудио:Audio Coding 3, 224 Кбит/сек, 2 канала, Front: L R, 48,0 КГц, 16 бит
Cубтитры: отсутствуют
2 приза «BAFTA TV Award»: в 1992 году за лучший дизайн и в 1993 за лучшую графику. В России сериал впервые был показан по телевидению (канал «Российские университеты») в 1993 году и сразу завоевал большую популярность.
Общее
Полное имя : Jeeves and Wooster\Сезон 1\Эпизод 1.avi
Формат : AVI
Формат/Информация : Audio Video Interleave
Размер файла : 701 Мбайт
Продолжительность : 50 м.
Общий поток : 1931 Кбит/сек
Программа кодирования : Lavf52.17.0
Формат оригинала/Имя : 1 сезон 1 диск
Видео
Идентификатор : 0
Формат : MPEG-4 Visual
Профиль формата : [email protected]
Параметр BVOP формата : Нет
Параметр QPel формата : Нет
Параметр GMC формата : Без точки перехода
Параметр матрицы формата : Default (H.263)
Идентификатор кодека : XVID
Идентификатор кодека/Подсказка : XviD
Продолжительность : 50 м.
Битрейт : 1696 Кбит/сек
Ширина : 720 пикселей
Высота : 552 пикселя
Соотношение сторон : 4:3
Частота кадров : 25,000 кадров/сек
Цветовое пространство : YUV
Субдискретизация насыщенности : 4:2:0
Битовая глубина : 8 бит
Тип развёртки : Прогрессивная
Метод сжатия : С потерями
Бит/(Пиксели*Кадры) : 0.171
Размер потока : 615 Мбайт (88%)
Библиотека кодирования : XviD 1.1.2 (UTC 2006-11-01)
Аудио
Идентификатор : 1
Формат : AC-3
Формат/Информация : Audio Coding 3
Расширение режима : CM (complete main)
Идентификатор кодека : 2000
Продолжительность : 50 м.
Вид битрейта : Постоянный
Битрейт : 224 Кбит/сек
Каналы : 2 канала
Расположение каналов : Front: L R
Частота : 48,0 КГц
Битовая глубина : 16 бит
Метод сжатия : С потерями
Размер потока : 81,3 Мбайт (12%)
Выравнивание : Соединение по промежуткам
Продолжительность промежутка : 32 мс. (0,80 видеокадр)
Время предзагрузки промежутка : 32 мс.
Общее
Полное имя : Jeeves and Wooster\Сезон 4\Эпизод 6.avi
Формат : AVI
Формат/Информация : Audio Video Interleave
Размер файла : 701 Мбайт
Продолжительность : 50 м.
Общий поток : 1922 Кбит/сек
Программа кодирования : Lavf52.17.0
Формат оригинала/Имя : 4 сезон 2 диск
Видео
Идентификатор : 0
Формат : MPEG-4 Visual
Профиль формата : [email protected]
Параметр BVOP формата : Нет
Параметр QPel формата : Нет
Параметр GMC формата : Без точки перехода
Параметр матрицы формата : Default (H.263)
Идентификатор кодека : XVID
Идентификатор кодека/Подсказка : XviD
Продолжительность : 50 м.
Битрейт : 1719 Кбит/сек
Ширина : 720 пикселей
Высота : 550 пикселей
Соотношение сторон : 4:3
Частота кадров : 25,000 кадров/сек
Цветовое пространство : YUV
Субдискретизация насыщенности : 4:2:0
Битовая глубина : 8 бит
Тип развёртки : Прогрессивная
Метод сжатия : С потерями
Бит/(Пиксели*Кадры) : 0.174
Размер потока : 627 Мбайт (89%)
Библиотека кодирования : XviD 1.1.2 (UTC 2006-11-01)
Аудио
Идентификатор : 1
Формат : AC-3
Формат/Информация : Audio Coding 3
Расширение режима : CM (complete main)
Идентификатор кодека : 2000
Продолжительность : 50 м.
Вид битрейта : Постоянный
Битрейт : 192 Кбит/сек
Каналы : 2 канала
Расположение каналов : Front: L R
Частота : 48,0 КГц
Битовая глубина : 16 бит
Метод сжатия : С потерями
Размер потока : 70,0 Мбайт (10%)
Выравнивание : Соединение по промежуткам
Продолжительность промежутка : 32 мс. (0,80 видеокадр)
Время предзагрузки промежутка : 32 мс.
Download / Скачать

Хотите скачать бесплатно? Зарегистрируйтесь на сайте (ссылка на регистрацию). Pirat.ca - самый быстрый торрент трекер в рунете!

Как скачивать  ·   Что такое торрент  ·   Рейтинг и ограничения



Последний раз редактировалось: persia07 (2013-01-18 10:35), всего редактировалось 5 раз(а)

Ares13

Пост 18-Янв-2013 15:16 (спустя 12 часов)

[Q] 

Спасибо за раздачу!!! Сразу беру в SeedAid - буду держать как можно дольше, сериал шедевр! Говорят книга P.G. Wodehouse еще интересней, но специально не читаю, не хочу портить впечатление от сериала.

_________________
[Профиль]  [ЛС] 

persia07 ®

Морской Волк

82

Пост 18-Янв-2013 19:29 (спустя 4 часа)

[Q] 

Пожалуйста. Я его на болванки кинул и в деревню родным отослал - одни восторги!
[Профиль]  [ЛС] 

Elly_77

Морской Волк

Пост 19-Мар-2013 15:48 (спустя 2 месяца)

[Q] 

Да, это действительно шедевр!
[Профиль]  [ЛС] 

Михаил28

Штурман

7

Пост 04-Май-2013 03:54 (спустя 1 месяц 15 дней)

[Q] 

Встаньте на раздачу.
[Профиль]  [ЛС] 

sppi9

Морской Волк

Пост 11-Май-2013 17:18 (спустя 7 дней)

[Q] 

[Профиль]  [ЛС] 

sppi9

Морской Волк

Пост 16-Май-2013 19:21 (спустя 5 дней)

[Q] 

Вернитесь на раздачу!
[Профиль]  [ЛС] 

SuperBeTeR

Морской Волк

Пост 27-Июн-2013 10:12 (спустя 1 месяц 10 дней)

[Q] 

Здоровый английский юмор (а пусть бы и нездоровый...)
[Профиль]  [ЛС] 

Ikoka_Divo

452

Пост 07-Июл-2014 00:43 (спустя 1 год)

[Q] 

оооооооо...
просто пищу!
душка Стивен Фрай!
читаю его в твиттере... он совсем не такой, как в этом сериале. но не менее остроумный, чем его герой.)
давно хотела пересмотреть их.
надеюсь, получится скачать.)
спасибо!!!!!!!!!!!!!

_________________

[Профиль]  [ЛС] 

Kung-fu Cat

Морской Волк

Пост 10-Сен-2014 23:57 (спустя 2 месяца 3 дня)

[Q] 

Обожаю их! 28

_________________
[Профиль]  [ЛС] 
Показать сообщения:    
Ответить на тему

Текущее время: Сегодня 09:51

Часовой пояс: GMT + 4



Вы не можете начинать темы
Вы не можете отвечать на сообщения
Вы не можете редактировать свои сообщения
Вы не можете удалять свои сообщения
Вы не можете голосовать в опросах
Вы не можете прикреплять файлы к сообщениям
Вы не можете скачивать файлы

▼ Вниз