ML
     
  Уважаемый Гость!
Вы можете поддержать проект и зарегистрироваться у наших партнеров - онлайн-стратегия MyLands. При регистрации в игре Вы получите код, который сможете активировать после регистрации на pirat.ca и получить 1000 дублонов.

Ваш код:
4fbd9898b6f10799a3e8edf60f31febd2bc15453
 
     

Альф (сезоны 1-4) / ALF (1986) DVDRip / ALF TV series / Сезон: 1-4 / Серии: 1-103 (Гэри Шимокава (Gary Shimokawa), Ник Хавинга (Nick Havinga), Барт Бринкерхофф (Burt Brinckerhoff), Питер Бонерц (Peter Bonerz), Пол Миллер (Paul Miller), Том Пэтчетт (T

Ответить на тему
 
Автор
Сообщение

Пост 03-Фев-2013 18:47

[Q] 

theWanderer

Корсар

-Альф (сезоны 1-4) / ALF (1986) DVDRip / ALF TV series- - США
семейный, комедия
1986 г.
103 серии оп 30 минут
DVD-Rip
Профессиональный (многоголосый, закадровый)- 1986 г. (Мировая премьера)
1996 г. (Премьера РФ)- Гэри Шимокава (Gary Shimokawa), Ник Хавинга (Nick Havinga), Барт Бринкерхофф (Burt Brinckerhoff), Питер Бонерц (Peter Bonerz), Пол Миллер (Paul Miller), Том Пэтчетт (Tom Patchett)
Макс Райт (Max Wright), Энн Шеден (Anne Schedeen), Андреа Элсон (Andrea Elson), Бенджи Грегори (Benji Gregory), Джон ЛаМотта (John LaMotta), Лиз Шеридан (Liz Sheridan), Джош Блэйк (Josh Blake), Дж.М. Дж. Баллок (JM J. Bullock), Пол Фаско (Paul Fusco) - Альф- Его родина — планета Ме́лмак, место жительства — Лос-Анджелес. Он самоуверен, капризен и жаден. Он порядочный обжора, грубиян и ворчун. Он обожает кошек (в кулинарном смысле), его любопытство не знает границ, а разрушительные способности поражают воображение. Но помыслы его чисты, душа открыта, а сердце отзывчиво.
Его имя — Го́рдон Ша́муэй, ему более 200 лет (родился 28 октября 1756 г. по земному летосчислению). Он один из немногих уцелевших жителей с взорвавшейся планеты Мелмак, врезавшийся на своём космическом корабле в гараж обычной американской семьи Таннеров в 1986 году. Глава семьи Вилли Таннер назвал его «Aльф» (сокращение от англ. Alien Life Form — внеземная форма жизни), что заменило Гордону его настоящее имя на очень долгое время. Таннеры приютили Альфа и скрывали его от так называемого Подразделения по изучению пришельцев. Он стал членом их семьи и хотя пришелец не всегда ценил оказанную ему доброту, он искренне любил Вилли, его жену Кейт, их детей Линн и Брайана и даже кота Таннеров Лаки (в другом переводе — Счастливчика), за которым часто охотился — на Мелмаке коты считались деликатесом. Более того, пришельцу удалось познакомиться с многими людьми помимо самих Таннеров. Приключения Альфа на Земле и составляют основу сюжета сериала.
-
Файл: Al'f_1x01_Al'f_A.L.F[www.disneyjazz.net&Yurikv].avi
Качество видео: DVDRip
Формат видео: AVI
Видео кодек: XviD
Аудио кодек: MP3
Видео: 464x352 (1.35:1), 29.970 fps, XviD Final 1.0.1 (build 35) ~1015 kbps avg, 0.20 bit/pixel
Аудио #1: 48 kHz, MPEG Layer 3, 1 ch, ~96.00 kbps avg
Аудио #2: 48 kHz, MPEG Layer 3, 2 ch, ~128.00 kbps avg
Cубтитры: отсутствуют-Файл: Al'f_2x01_Tuda_i_obratno_Working_My_Way_Back_To_You.avi
Качество видео: DVDRip
Формат видео: AVI
Видео кодек: XviD
Аудио кодек: MP3
Видео: 512x384 (1.33:1), 29.970 fps, XviD Final 1.0.3 (build 37) ~1022 kbps avg, 0.17 bit/pixel
Аудио #1: 48 kHz, MPEG Layer 3, 1 ch, ~96.00 kbps avg
Аудио #2: 48 kHz, MPEG Layer 3, 2 ch, ~128.00 kbps avg
Cубтитры: отсутствуют-Файл: ALF_3x01_Ostanovis' vo imya lyubvi_Stop In The Name Of Love.avi
Качество видео: DVDRip
Формат видео: AVI
Видео кодек: XviD
Аудио кодек: MP3
Видео: 512x384 (1.33:1), 29.970 fps, XviD 1.2 beta 1 (build 43) ~983 kbps avg, 0.17 bit/pixel
Аудио #1: 48 kHz, MPEG Layer 3, 1 ch, ~96.00 kbps avg
Аудио #2: 48 kHz, MPEG Layer 3, 2 ch, ~128.00 kbps avg
Cубтитры: отсутствуют-Файл: ALF_4x01_Vernis', detka_Baby, Come Back.avi
Качество видео: DVDRip
Формат видео: AVI
Видео кодек: XviD
Аудио кодек: MP3
Видео: 512x384 (1.33:1), 29.970 fps, XviD MPEG-4 ~978 kbps avg, 0.17 bit/pixel
Аудио #1: 48 kHz, MPEG Layer 3, 1 ch, ~96.00 kbps avg
Аудио #2: 48 kHz, MPEG Layer 3, 2 ch, ~128.00 kbps avg
Cубтитры: отсутствуют
Общее
Полное имя : I:\Софт\ALF-DVDRip\Al'f_1x01_Al'f_A.L.F[www.disneyjazz.net&Yurikv].avi
Формат : AVI
Формат/Информация : Audio Video Interleave
Размер файла : 186 Мбайт
Продолжительность : 20 м.
Общий поток : 1258 Кбит/сек
Программа кодирования : VirtualDubMod 1.5.10.1 (build 2366/release)
Библиотека кодирования : VirtualDubMod build 2366/release
Видео
Идентификатор : 0
Формат : MPEG-4 Visual
Профиль формата : Advanced [email protected]
Параметр BVOP формата : 1
Параметр QPel формата : Нет
Параметр GMC формата : Без точки перехода
Параметр матрицы формата : Выборочная
Идентификатор кодека : XVID
Идентификатор кодека/Подсказка : XviD
Продолжительность : 20 м.
Битрейт : 1017 Кбит/сек
Ширина : 496 пикселей
Высота : 368 пикселей
Соотношение сторон : 4:3
Частота кадров : 29,970 кадров/сек
Цветовое пространство : YUV
Субдискретизация насыщенности : 4:2:0
Битовая глубина : 8 бит
Тип развёртки : Прогрессивная
Метод сжатия : С потерями
Бит/(Пиксели*Кадры) : 0.186
Размер потока : 150 Мбайт (81%)
Библиотека кодирования : XviD 1.0.1 (UTC 2004-06-05)
Аудио #1
Идентификатор : 1
Формат : MPEG Audio
Версия формата : Version 1
Профиль формата : Layer 3
Идентификатор кодека : 55
Идентификатор кодека/Подсказка : MP3
Продолжительность : 20 м.
Вид битрейта : Постоянный
Битрейт : 96,0 Кбит/сек
Каналы : 1 канал
Частота : 48,0 КГц
Метод сжатия : С потерями
Размер потока : 14,2 Мбайт (8%)
Выравнивание : Соединение по промежуткам
Продолжительность промежутка : 33 мс. (1,00 видеокадр)
Время предзагрузки промежутка : 504 мс.
Язык : English
Аудио #2
Идентификатор : 2
Формат : MPEG Audio
Версия формата : Version 1
Профиль формата : Layer 3
Идентификатор кодека : 55
Идентификатор кодека/Подсказка : MP3
Продолжительность : 20 м.
Вид битрейта : Постоянный
Битрейт : 128 Кбит/сек
Каналы : 2 канала
Частота : 48,0 КГц
Метод сжатия : С потерями
Размер потока : 18,9 Мбайт (10%)
Выравнивание : Соединение по промежуткам
Продолжительность промежутка : 33 мс. (1,00 видеокадр)
Время предзагрузки промежутка : 504 мс.
Библиотека кодирования : LAME3.89 (beta)-Общее
Полное имя : I:\Софт\ALF-DVDRip\alf.dvdrip-s2\Al'f_2x01_Tuda_i_obratno_Working_My_Way_Back_To_You.avi
Формат : AVI
Формат/Информация : Audio Video Interleave
Размер файла : 189 Мбайт
Продолжительность : 20 м.
Общий поток : 1265 Кбит/сек
Программа кодирования : VirtualDubMod 1.5.10.1 (build 2366/release)
Библиотека кодирования : VirtualDubMod build 2366/release
Видео
Идентификатор : 0
Формат : MPEG-4 Visual
Профиль формата : Advanced [email protected]
Параметр BVOP формата : 2
Параметр QPel формата : Нет
Параметр GMC формата : Без точки перехода
Параметр матрицы формата : Default (MPEG)
Режим смешивания : Сжатый битовый поток
Идентификатор кодека : XVID
Идентификатор кодека/Подсказка : XviD
Продолжительность : 20 м.
Битрейт : 1023 Кбит/сек
Ширина : 512 пикселей
Высота : 384 пикселя
Соотношение сторон : 4:3
Частота кадров : 29,970 кадров/сек
Цветовое пространство : YUV
Субдискретизация насыщенности : 4:2:0
Битовая глубина : 8 бит
Тип развёртки : Прогрессивная
Метод сжатия : С потерями
Бит/(Пиксели*Кадры) : 0.174
Размер потока : 153 Мбайт (81%)
Библиотека кодирования : XviD 1.0.3 (UTC 2004-12-20)
Аудио #1
Идентификатор : 1
Формат : MPEG Audio
Версия формата : Version 1
Профиль формата : Layer 3
Идентификатор кодека : 55
Идентификатор кодека/Подсказка : MP3
Продолжительность : 20 м.
Вид битрейта : Постоянный
Битрейт : 96,0 Кбит/сек
Каналы : 1 канал
Частота : 48,0 КГц
Метод сжатия : С потерями
Размер потока : 14,4 Мбайт (8%)
Выравнивание : Соединение по промежуткам
Продолжительность промежутка : 33 мс. (1,00 видеокадр)
Время предзагрузки промежутка : 504 мс.
Аудио #2
Идентификатор : 2
Формат : MPEG Audio
Версия формата : Version 1
Профиль формата : Layer 3
Идентификатор кодека : 55
Идентификатор кодека/Подсказка : MP3
Продолжительность : 20 м.
Вид битрейта : Постоянный
Битрейт : 128 Кбит/сек
Каналы : 2 канала
Частота : 48,0 КГц
Метод сжатия : С потерями
Размер потока : 19,2 Мбайт (10%)
Выравнивание : Соединение по промежуткам
Продолжительность промежутка : 33 мс. (1,00 видеокадр)
Время предзагрузки промежутка : 504 мс.-Общее
Полное имя : I:\Софт\ALF-DVDRip\alf.dvdrip-s3\ALF_3x01_Ostanovis' vo imya lyubvi_Stop In The Name Of Love.avi
Формат : AVI
Формат/Информация : Audio Video Interleave
Размер файла : 187 Мбайт
Продолжительность : 21 м.
Общий поток : 1226 Кбит/сек
Программа кодирования : VirtualDubMod 1.5.10.1 (build 2366/release)
Библиотека кодирования : VirtualDubMod build 2366/release
Видео
Идентификатор : 0
Формат : MPEG-4 Visual
Профиль формата : Advanced [email protected]
Параметр BVOP формата : 1
Параметр QPel формата : Нет
Параметр GMC формата : Без точки перехода
Параметр матрицы формата : Выборочная
Идентификатор кодека : XVID
Идентификатор кодека/Подсказка : XviD
Продолжительность : 21 м.
Битрейт : 985 Кбит/сек
Ширина : 512 пикселей
Высота : 384 пикселя
Соотношение сторон : 4:3
Частота кадров : 29,970 кадров/сек
Цветовое пространство : YUV
Субдискретизация насыщенности : 4:2:0
Битовая глубина : 8 бит
Тип развёртки : Прогрессивная
Метод сжатия : С потерями
Бит/(Пиксели*Кадры) : 0.167
Размер потока : 150 Мбайт (80%)
Библиотека кодирования : XviD 1.2.0SMP (UTC 2006-01-08)
Аудио #1
Идентификатор : 1
Формат : MPEG Audio
Версия формата : Version 1
Профиль формата : Layer 3
Идентификатор кодека : 55
Идентификатор кодека/Подсказка : MP3
Продолжительность : 21 м.
Вид битрейта : Постоянный
Битрейт : 96,0 Кбит/сек
Каналы : 1 канал
Частота : 48,0 КГц
Метод сжатия : С потерями
Размер потока : 14,7 Мбайт (8%)
Выравнивание : Соединение по промежуткам
Продолжительность промежутка : 33 мс. (1,00 видеокадр)
Время предзагрузки промежутка : 504 мс.
Язык : English
Аудио #2
Идентификатор : 2
Формат : MPEG Audio
Версия формата : Version 1
Профиль формата : Layer 3
Идентификатор кодека : 55
Идентификатор кодека/Подсказка : MP3
Продолжительность : 21 м.
Вид битрейта : Постоянный
Битрейт : 128 Кбит/сек
Каналы : 2 канала
Частота : 48,0 КГц
Метод сжатия : С потерями
Размер потока : 19,6 Мбайт (10%)
Выравнивание : Соединение по промежуткам
Продолжительность промежутка : 33 мс. (1,00 видеокадр)
Время предзагрузки промежутка : 504 мс.
Библиотека кодирования : LAME3.89 (beta)-Общее
Полное имя : I:\Софт\ALF-DVDRip\alf.dvdrip-s4\ALF_4x01_Vernis', detka_Baby, Come Back.avi
Формат : AVI
Формат/Информация : Audio Video Interleave
Размер файла : 188 Мбайт
Продолжительность : 21 м.
Общий поток : 1221 Кбит/сек
Программа кодирования : VirtualDubMod 1.5.10.1 (build 2366/release)
Библиотека кодирования : VirtualDubMod build 2366/release
Видео
Идентификатор : 0
Формат : MPEG-4 Visual
Профиль формата : Advanced [email protected]
Параметр BVOP формата : 2
Параметр QPel формата : Нет
Параметр GMC формата : Без точки перехода
Параметр матрицы формата : Default (H.263)
Режим смешивания : Сжатый битовый поток
Идентификатор кодека : XVID
Идентификатор кодека/Подсказка : XviD
Продолжительность : 21 м.
Битрейт : 980 Кбит/сек
Ширина : 512 пикселей
Высота : 384 пикселя
Соотношение сторон : 4:3
Частота кадров : 29,970 кадров/сек
Цветовое пространство : YUV
Субдискретизация насыщенности : 4:2:0
Битовая глубина : 8 бит
Тип развёртки : Прогрессивная
Метод сжатия : С потерями
Бит/(Пиксели*Кадры) : 0.166
Размер потока : 151 Мбайт (80%)
Библиотека кодирования : XviD 1.2.0SMP (UTC 2006-01-08)
Аудио #1
Идентификатор : 1
Формат : MPEG Audio
Версия формата : Version 1
Профиль формата : Layer 3
Идентификатор кодека : 55
Идентификатор кодека/Подсказка : MP3
Продолжительность : 21 м.
Вид битрейта : Постоянный
Битрейт : 96,0 Кбит/сек
Каналы : 1 канал
Частота : 48,0 КГц
Метод сжатия : С потерями
Размер потока : 14,8 Мбайт (8%)
Выравнивание : Соединение по промежуткам
Продолжительность промежутка : 33 мс. (1,00 видеокадр)
Время предзагрузки промежутка : 504 мс.
Аудио #2
Идентификатор : 2
Формат : MPEG Audio
Версия формата : Version 1
Профиль формата : Layer 3
Идентификатор кодека : 55
Идентификатор кодека/Подсказка : MP3
Продолжительность : 21 м.
Вид битрейта : Постоянный
Битрейт : 128 Кбит/сек
Каналы : 2 канала
Частота : 48,0 КГц
Метод сжатия : С потерями
Размер потока : 19,7 Мбайт (10%)
Выравнивание : Соединение по промежуткам
Продолжительность промежутка : 33 мс. (1,00 видеокадр)
Время предзагрузки промежутка : 504 мс.
Библиотека кодирования : LAME3.89 (beta)
-
Download / Скачать

Хотите скачать бесплатно? Зарегистрируйтесь на сайте (ссылка на регистрацию). Pirat.ca - самый быстрый торрент трекер в рунете!

Как скачивать  ·   Что такое торрент  ·   Рейтинг и ограничения



Последний раз редактировалось: theWanderer (2013-02-04 18:59), всего редактировалось 5 раз(а)

veter13

Корсар

Пост 09-Фев-2013 23:00 (спустя 6 дней)

[Q] 

[Профиль]  [ЛС] 

Wonderwoman

Шкипер

Пост 10-Фев-2013 21:39 (спустя 22 часа)

[Q] 

супер фильм

_________________
Правильно. Неправильно. Плохо. Хорошо. К чему вообще эти ярлыки? Неважно, как оценивают моё поведение другие, важно что я наслаждаюсь происходящим.
[Профиль]  [ЛС] 

infiniti

Лоцман

Пост 24-Фев-2013 00:27 (спустя 13 дней)

[Q] 

Спасибо автору очень благодарен))

_________________
·٠•●๑۩ Infiniti ۩๑●•٠·˙
[Профиль]  [ЛС] 

Elly_77

Морской Волк

Пост 19-Мар-2013 15:50 (спустя 23 дня)

[Q] 

[Профиль]  [ЛС] 

Fettel

Морской Волк

Пост 27-Апр-2013 15:33 (спустя 1 месяц 7 дней)

[Q] 

[Профиль]  [ЛС] 

ckujime

Морской Волк

Пост 13-Июн-2013 16:15 (спустя 1 месяц 16 дней)

[Q] 

плохо идет 200 кб/c где народ??
[Профиль]  [ЛС] 

Dominik

Морской Волк

68

Пост 19-Апр-2014 15:36 (спустя 10 месяцев 5 дней)

[Q] 

Всем качать!!!
Супер!

_________________
Раньше удивляло хамство, теперь удивляет вежливость!
[Профиль]  [ЛС] 
Показать сообщения:    
Ответить на тему

Текущее время: Сегодня 19:54

Часовой пояс: GMT + 4



Вы не можете начинать темы
Вы не можете отвечать на сообщения
Вы не можете редактировать свои сообщения
Вы не можете удалять свои сообщения
Вы не можете голосовать в опросах
Вы не можете прикреплять файлы к сообщениям
Вы не можете скачивать файлы

▼ Вниз