ML
     
  Уважаемый Гость!
Вы можете поддержать проект и зарегистрироваться у наших партнеров - онлайн-стратегия MyLands. При регистрации в игре Вы получите код, который сможете активировать после регистрации на pirat.ca и получить 1000 дублонов.

Ваш код:
4fbd9898b6f10799a3e8edf60f31febd2bc15453
 
     

Джонатан Стрендж и мистер Норрелл / Jonathan Strange And Mr Norrell / Полный / Сезон: 1 / Серии: 7 из 7 (Тоби Хэйнс / Toby Haynes) [2015 г., фэнтези, история, ..., HDTVRip] MVO (NewStudio) + Original (Eng)

Ответить на тему
 
Автор
Сообщение

Пост 03-Фев-2013 22:55

[Q] 

kugesan

-Джонатан Стрендж и мистер Норрелл
Jonathan Strange And Mr Norrell

«Let the Magic Begin»
-- Производство: Великобритания
Жанр: фэнтези, история, ...
Год выпуска: 2015 г.-Подготовка релиза: Студия |NewStudio|
Перевод: Многоголосый закадровый, профессиональный
Оригинальный аудиопоток: английский-Автор перевода: Александра Цернант
Постер: Vortex-Мировая премьера: 17 мая 2015, ...-Режиссер: Тоби Хэйнс / Toby Haynes-В ролях: Марк Уоррен, Берти Карвел, Эдди Марсан, Шарлотта Райли, Элис Энглерт, Сэмюэл Уэст, Энцо Чиленти, Пол Кэй, Эдвард Хогг, Эрион Бакаре ...-Описание:
Магическая Англия эпохи Наполеоновских войн.
Англия, в которой волшебники состоят на тайной службе правительства и собственными способами защищают Британскую империю. Но, сражаясь с врагом «обычным» и используя свою силу как еще одно оружие в войне «людской», волшебники забыли об истинном, извечном недруге и противнике — Древнем Народе, помнящем, как он управлял некогда человеческими землями и душами. И теперь, когда магия стала слабеть и иссякать, из глубин запредельной древности возвращаются фэйри, ведомые своей Новой надеждой — подменышем Королем-Вороном...-Сезон: 1
Серии: 7 из 7 серий
Продолжительность: ~ 00:59:00 мин серия-
Качество видео: HDTVRip
Контейнер: AVI
Видео кодек: XviD
Аудио кодек: MP3
Видео: MPEG-4 Visual at 1392 Кбит/сек: 720 x 400 (1.800) at 25.000 fps: 0.19 Бит/Пиксели
Аудио Rus: MPEG Audio at 128 Кбит/сек, 2 канала, 48,0 КГц |NewStudio|
Аудио Eng: MPEG Audio at 128 Кбит/сек, 2 канала, 48,0 КГц |Original|
Cубтитры: отсутствуют
- -
  • Друзья английской магии (The Friends of English Magic)
  • Как дела у леди Поул? (How Is Lady Pole?)
  • Обучение Волшебника (The Education of a Magician)
  • Все зеркала мира (All the Mirrors of the World)
  • Арабелла (Arabella)
  • Черная башня (The Black Tower)
  • Странный Джонатан & г-н Норрелл (Jonathan Strange & Mr Norrell)
  • Как дела у леди Поул? (How Is Lady Pole?)
-
Общее
Полное имя : E:\_Сериалы\_Сериалы\Джонатан Стрендж и мистер Норрелл\Jonathan.Strange.&.Mr.Norrell.s01.HDTVRip.NewStudio.TV\Jonathan.Strange.&.Mr.Norrell.s01e01.HDTVRip.NewStudio.TV.avi
Формат : AVI
Формат/Информация : Audio Video Interleave
Размер файла : 700 Мбайт
Продолжительность : 58 м.
Общий поток : 1662 Кбит/сек
Программа кодирования : VirtualDubMod 1.5.10.2 (build 2540/release)
Библиотека кодирования : VirtualDubMod build 2540/release
Видео
Идентификатор : 0
Формат : MPEG-4 Visual
Профиль формата : Advanced [email protected]
Параметр BVOP формата : 2
Параметр QPel формата : Нет
Параметр GMC формата : Без точки перехода
Параметр матрицы формата : Default (MPEG)
Идентификатор кодека : XVID
Идентификатор кодека/Подсказка : XviD
Продолжительность : 58 м.
Битрейт : 1392 Кбит/сек
Ширина : 720 пикселей
Высота : 400 пикселей
Соотношение сторон : 16:9
Частота кадров : 25,000 кадров/сек
Цветовое пространство : YUV
Субдискретизация насыщенности : 4:2:0
Битовая глубина : 8 бит
Тип развёртки : Прогрессивная
Метод сжатия : С потерями
Бит/(Пиксели*Кадры) : 0.193
Размер потока : 586 Мбайт (84%)
Библиотека кодирования : XviD 64
Аудио #1
Идентификатор : 1
Формат : MPEG Audio
Версия формата : Version 1
Профиль формата : Layer 3
Режим : Joint stereo
Расширение режима : MS Stereo
Идентификатор кодека : 55
Идентификатор кодека/Подсказка : MP3
Продолжительность : 58 м.
Вид битрейта : Постоянный
Битрейт : 128 Кбит/сек
Каналы : 2 канала
Частота : 48,0 КГц
Метод сжатия : С потерями
Размер потока : 53,9 Мбайт (8%)
Выравнивание : Соединение по промежуткам
Продолжительность промежутка : 40 мс. (1,00 видеокадр)
Время предзагрузки промежутка : 504 мс.
Аудио #2
Идентификатор : 2
Формат : MPEG Audio
Версия формата : Version 1
Профиль формата : Layer 3
Режим : Joint stereo
Расширение режима : MS Stereo
Идентификатор кодека : 55
Идентификатор кодека/Подсказка : MP3
Продолжительность : 58 м.
Вид битрейта : Постоянный
Битрейт : 128 Кбит/сек
Каналы : 2 канала
Частота : 48,0 КГц
Метод сжатия : С потерями
Размер потока : 53,9 Мбайт (8%)
Выравнивание : Соединение по промежуткам
Продолжительность промежутка : 40 мс. (1,00 видеокадр)
Время предзагрузки промежутка : 504 мс.
-
-Скриншоты:
-
-
Раздача ведётся путём добавления новых серий; при каждом добавлении создаётся новый торрент.
Чтобы начать докачку новой серии, пользователям необходимо сделать следующее:
1. остановить скачивание,
2. удалить старый торрент у себя из клиента (старые серии удалять не надо),
3. скачать новый торрент и запустить его у себя в клиенте вместо старого, при этом указать клиенту путь в старую папку, куда и должно происходить скачивание новых серий.
Ваш клиент при этом должен произвести хеширование (проверку) старой папки (если не производит сам - помогите ему сделать это), и будет докачивать только те серии которых у вас ещё нет. Старые серии при этом не удаляются, а продолжают раздаваться!
Eсли вы уже удалили старые серии, то предотвратить повторную закачку старых серий можно, отжав галочку в соответствующих местах при запуске нового торрента. По возможности, желательно не удалять старые серии как можно дольше, чтобы релизёр не столько продолжал раздавать старые серии, а смог сконцентрироваться на новых.
Совет для тех, кто не хочет ждать перехеширования:
Создайте ещё одну папку рядом с папкой сериала (рядом, а не в ней!!!). Каждую новую серию после удачной загрузки копируйте в новую папку так чтобы ваша основная папка всегда была пуста. Когда ваш новый торрент предложит вам закачать все файлы, выберете только последнюю. Для сидирования же укажите адрес новой папки.
Как закачать отдельный файл из торрента или докачать ранее пропущенные файлы торрента!
-
1. Открыть торрент
2. Снять галки с тех файлов торрента, которые мы не хотим закачивать. Оставляем только на нужных нам файлах (файле).
3. Нажать О.К.
В клиенте utorrent
Инструкция
1) Открыть торрент

2) Снять галки с тех файлов торрента, которые мы не хотим закачивать:
* либо вручную, снимая с каждого файла галку( скрин №1)
* либо, нажав кнопку "Снять метки (Select None)", сняв сразу со всех файлов(скрин №2)
№1

№2

Оставляем только на нужных нам файлах (файле).

3)Нажать О.К
Добавлена седьмая, заключительная, серия первого сезона
Download / Скачать

Хотите скачать бесплатно? Зарегистрируйтесь на сайте (ссылка на регистрацию). Pirat.ca - самый быстрый торрент трекер в рунете!

Как скачивать  ·   Что такое торрент  ·   Рейтинг и ограничения



Последний раз редактировалось: kugesan (2015-07-02 00:57), всего редактировалось 15 раз(а)

kugesan ®

56657

Пост 02-Июл-2015 00:57 (спустя 2 года 4 месяца)

[Q] 

Добавлена седьмая, заключительная, серия первого сезона

_________________

В мире две бесконечности: вселенная и человеческая глупость - Альберт Эйнштен
«Можно вытащить человека из грязи, но нельзя вытащить грязь из человека»!
[Профиль]  [ЛС] 

Пост 07-Июл-2015 18:46 (спустя 5 дней)

Топик был перенесен из форума Сериалы в эфире в форум Зарубежные сериалы
Андря
 

lightmaster

Флибустьер

Пост 06-Сен-2015 11:52 (спустя 2 месяца 4 дня)

[Q] 

От одних английских рож блевать тошнит...
[Профиль]  [ЛС] 
Показать сообщения:    
Ответить на тему

Текущее время: Сегодня 19:59

Часовой пояс: GMT + 4



Вы не можете начинать темы
Вы не можете отвечать на сообщения
Вы не можете редактировать свои сообщения
Вы не можете удалять свои сообщения
Вы не можете голосовать в опросах
Вы не можете прикреплять файлы к сообщениям
Вы не можете скачивать файлы

▼ Вниз