ML
     
  Уважаемый Гость!
Вы можете поддержать проект и зарегистрироваться у наших партнеров - онлайн-стратегия MyLands. При регистрации в игре Вы получите код, который сможете активировать после регистрации на pirat.ca и получить 1000 дублонов.

Ваш код:
9cfe162481db953a6549f32179d7b3900b8b8643
 
     

Карточный домик / House of Cards / Сезон: 1 / Серии: 13 из 13 (Джеймс Фоули, Дэвид Финчер / James Foley, David Fincher) [2013 г., Драма, WEB-DL] MVO

Ответить на тему
 
Автор
Сообщение

Пост 05-Фев-2013 00:43

[Q] 

Gweg

-Карточный домик / House of Cards-- Производство: США
Жанр: Драма
Год выпуска: 2013 г.
Продолжительность: 00:56:06
Мировая премьера: 1 февраля 2013
Российская премьера: 5 февраля 2013
Перевод: Профессиональный (многоголосый, закадровый)
Режиссер: Джеймс Фоули, Дэвид Финчер / James Foley, David Fincher-В ролях: Кевин Спейси, Робин Райт, Кейт Мара, Кори Столл, Майкл Келли, Сакина Джэффри, Жаклин Джонс, Рюэл Пендлтон, Гилберт Сото, Сандрин Холт...-Описание: Безжалостный конгрессмен, Фрэнсис Андервуд, и его амбициозная жена Клэр, не остановятся ни перед чем, чтобы завоевать все. Эта жестокая политическая драма пропитанная жадностью, сексом, любовью и коррупцией.-
Качество видео: WEB-DL
Контейнер: AVI
Видео кодек: XviD
Аудио кодек: MP3
Видео: 720x352 (2.05:1), 29.970 fps, XviD build 50 ~1351 kbps avg, 0.18 bit/pixel
Аудио: 44.100 kHz, MPEG Layer 3, 2 ch, ~128.00 kbps avg
Cубтитры: отсутствуют
Общее
Полное имя : C:\Торренты\House of Cards\House.of.Cards.2013.S01E01.P.WEB-DLRip.avi
Формат : AVI
Формат/Информация : Audio Video Interleave
Размер файла : 598 Мбайт
Продолжительность : 56 м.
Общий поток : 1491 Кбит/сек
Программа кодирования : VirtualDubMod 1.5.10.2 (build 2540/release)
Библиотека кодирования : VirtualDubMod build 2540/release
Видео
Идентификатор : 0
Формат : MPEG-4 Visual
Профиль формата : Advanced [email protected]
Параметр BVOP формата : 1
Параметр QPel формата : Нет
Параметр GMC формата : Без точки перехода
Параметр матрицы формата : Выборочная
Идентификатор кодека : XVID
Идентификатор кодека/Подсказка : XviD
Продолжительность : 56 м.
Битрейт : 1351 Кбит/сек
Ширина : 720 пикселей
Высота : 352 пикселя
Соотношение сторон : 2,045
Частота кадров : 29,970 кадров/сек
Цветовое пространство : YUV
Субдискретизация насыщенности : 4:2:0
Битовая глубина : 8 бит
Тип развёртки : Прогрессивная
Метод сжатия : С потерями
Бит/(Пиксели*Кадры) : 0.178
Размер потока : 542 Мбайт (91%)
Библиотека кодирования : XviD 1.2.1 (UTC 2008-12-04)
Аудио
Идентификатор : 1
Формат : MPEG Audio
Версия формата : Version 1
Профиль формата : Layer 3
Режим : Joint stereo
Идентификатор кодека : 55
Идентификатор кодека/Подсказка : MP3
Продолжительность : 56 м.
Вид битрейта : Постоянный
Битрейт : 128 Кбит/сек
Каналы : 2 канала
Частота : 44,1 КГц
Метод сжатия : С потерями
Размер потока : 51,4 Мбайт (9%)
Выравнивание : Разделение по промежуткам
Продолжительность промежутка : 33 мс. (1,00 видеокадр)
Время предзагрузки промежутка : 500 мс.
- -- Добавлены 11, 12 и 13-серии -
Download / Скачать

Хотите скачать бесплатно? Зарегистрируйтесь на сайте (ссылка на регистрацию). Pirat.ca - самый быстрый торрент трекер в рунете!

Как скачивать  ·   Что такое торрент  ·   Рейтинг и ограничения



Последний раз редактировалось: Gweg (2013-02-08 01:23), всего редактировалось 17 раз(а)

Gweg ®

33066

Пост 05-Фев-2013 00:47 (спустя 4 минуты)

[Q] 

Приятного просмотра!!!
[Профиль]  [ЛС] 

Андря

8409

Пост 05-Фев-2013 02:58 (спустя 2 часа 10 минут)

[Q] 

будет ли раздача пополняемая?

_________________
Като Тешекика
[Профиль]  [ЛС] 

Gemornax

Морской Волк

Пост 05-Фев-2013 12:11 (спустя 9 часов)

[Q] 

Спасибо!
[Профиль]  [ЛС] 

Gweg ®

33066

Пост 05-Фев-2013 13:12 (спустя 1 час)

[Q] 

Да, раздачу буду пополнять при выходе следующих серий.
[Профиль]  [ЛС] 

лесенок

Шкипер

Пост 06-Фев-2013 06:13 (спустя 17 часов)

[Q] 

а когда будут добавлять след-е серии?
[Профиль]  [ЛС] 

Gweg ®

33066

Пост 06-Фев-2013 14:07 (спустя 7 часов)

[Q] 

Добавлено еще три серии
[Профиль]  [ЛС] 

Gweg ®

33066

Пост 07-Фев-2013 13:59 (спустя 23 часа)

[Q] 

Добавлены: 7, 8, 9 и 10 серии!!!
[Профиль]  [ЛС] 

Abrikos007

Лоцман

Пост 07-Фев-2013 15:29 (спустя 1 час 30 минут)

[Q] 

Thank you!
[Профиль]  [ЛС] 

Abrikos007

Лоцман

Пост 07-Фев-2013 15:31 (спустя 1 минута)

[Q] 

Вопрос: а как так получается, что серии с озвучанием Первого Канала появляются на трекере раньше, чем на самом канале?
[Профиль]  [ЛС] 

Gweg ®

33066

Пост 08-Фев-2013 01:09 (спустя 9 часов)

[Q] 

Добавлены: 11, 12 и 13 серии!!!
[Профиль]  [ЛС] 

Gemornax

Морской Волк

Пост 08-Фев-2013 08:02 (спустя 6 часов)

[Q] 

[Профиль]  [ЛС] 

fudotafuka

Штурман

Пост 15-Фев-2013 17:43 (спустя 7 дней)

[Q] 

[Профиль]  [ЛС] 

azzaulter

Шкипер

Пост 17-Фев-2013 19:06 (спустя 2 дня 1 час)

[Q] 

[Профиль]  [ЛС] 

vaskasv

Шкипер

1394

Пост 07-Мар-2013 00:16 (спустя 17 дней)

[Q] 

Ща качнем говорят супер!

_________________
[Профиль]  [ЛС] 

akhverdyan

Лоцман

Пост 05-Апр-2013 19:45 (спустя 29 дней)

[Q] 

[Профиль]  [ЛС] 

lightning_01

Шкипер

13

Пост 20-Апр-2013 17:29 (спустя 14 дней)

[Q] 

Отличный сериал, спасибо

_________________
[Профиль]  [ЛС] 

Elooder

Лоцман

Пост 17-Июн-2013 02:06 (спустя 1 месяц 26 дней)

[Q] 

А БЕЗ перевода есть?
[Профиль]  [ЛС] 

German43

Лоцман

Пост 14-Фев-2014 22:33 (спустя 7 месяцев 27 дней)

[Q] 

Хороший, умный сериал. У нас к сожалению такие не снимают.
[Профиль]  [ЛС] 

BraionServ1

Гроза морей

Пост 23-Фев-2014 16:58 (спустя 8 дней)

[Q] 

Чтото первый сезон популярнее второго у нас на трекере
Добавлено спустя 13 минут 11 секунд:
А так перевод качественный Спасибо!!!
[Профиль]  [ЛС] 

tomatto

Морской Волк

Пост 08-Июн-2014 03:06 (спустя 3 месяца 12 дней)

[Q] 

очень интересный и качественный сериал. Великолепный подбор актеров. Спасибо!
[Профиль]  [ЛС] 

fex

Морской Волк

Пост 18-Фев-2015 11:46 (спустя 8 месяцев 10 дней)

[Q] 

Спасибо огромное!!!

_________________
Всегда телефон в микроволновке заряжаю, на две минуты ставлю. Оперативку отлично очищает и удаляет системный мусор.
[Профиль]  [ЛС] 

gennesy

Штурман

Пост 09-Мар-2015 12:03 (спустя 19 дней)

[Q] 

Спасибо!!!! Спасибо!!!
[Профиль]  [ЛС] 

alex_dry

Гроза морей

Пост 22-Апр-2015 21:39 (спустя 1 месяц 13 дней)

[Q] 

Спасибо, посмотрим!
[Профиль]  [ЛС] 

kaktus

Корсар

Пост 01-Июл-2015 00:48 (спустя 2 месяца 8 дней)

[Q] 

ребята, а чья это озвучка? не могу найти такую же на второй сезон. это же не первый канал. начал смотреть второй с переводом первого канала, а там другие голоса. эти поприятнее
[Профиль]  [ЛС] 

янка-сан

Гроза морей

Пост 18-Дек-2015 20:58 (спустя 5 месяцев 17 дней)

[Q] 

сериал супер! рекомендую любителям жанра Лови бочку
[Профиль]  [ЛС] 

Spektor

Лоцман

Пост 09-Фев-2016 02:35 (спустя 1 месяц 21 день)

[Q] 

Gweg, а чья это озвучка?

_________________
[Профиль]  [ЛС] 
Показать сообщения:    
Ответить на тему

Текущее время: Сегодня 06:02

Часовой пояс: GMT + 4



Вы не можете начинать темы
Вы не можете отвечать на сообщения
Вы не можете редактировать свои сообщения
Вы не можете удалять свои сообщения
Вы не можете голосовать в опросах
Вы не можете прикреплять файлы к сообщениям
Вы не можете скачивать файлы

▼ Вниз