ML
     
  Уважаемый Гость!
Вы можете поддержать проект и зарегистрироваться у наших партнеров - онлайн-стратегия MyLands. При регистрации в игре Вы получите код, который сможете активировать после регистрации на pirat.ca и получить 1000 дублонов.

Ваш код:
6f9ab67d502902cc72a06c406977ddb589b7f39d
 
     

Уэйуорд Пайнс / Wayward Pines / Сезон: 1 / Полный / Серии: 10 из 10 (Зал Батманглидж / Zal Batmanglij, ...) [2015 г., драма, детектив, WEBDLRip] MVO (NewStudio) + Original (Eng)

Ответить на тему
 
Автор
Сообщение

Пост 14-Фев-2013 14:55

[Q] 

kugesan

-Уэйуорд Пайнс / Wayward Pines -- Производство: США
Жанр: драма, детектив, ...
Год выпуска: 2015 г.-Мировая премьера: 14 мая 2015 ...
Российская премьера: 14 мая 2015-Озвучка: Студия |NewStudio|
Перевод: Многоголосый закадровый, профессиональный
Оригинальный аудиопоток: английский-Автор перевода: Григорий Сенин
Постер: Vortex-Режиссер: Зал Батманглидж / Zal Batmanglij, Тим Хантер / Tim Hunter, Нимрод Антал / Nimród Antal, ...-В ролях: Мэтт Диллон, Терренс Ховард, Грета Ли, Мелисса Лео, Шаннин Соссамон, Брюс Блэйн, Айден Чан Арнольд, Шиван Фэллон, Тим Гриффин, Карла Гуджино ...-Описание:
Агент секретной службы Итан Берк приезжает в пасторальный городок Уэйуорд Пайнс в Айдахо, чтобы найти двух пропавших фэбээровцев. Но расследование вместо ответов приносит лишь новые вопросы. Что же происходит в Уэйуорд Пайнс?-Сезон: 1
Серии: 10 из 10 серий
Продолжительность: ~ 00:43:00 мин серия-
Качество видео: WEBDLRip
Контейнер: AVI
Видео кодек: XviD
Аудио кодек: MP3
Видео: MPEG-4 Visual at 1418 Кбит/сек: 720 x 400 (1.800) at 23.976 fps: 0.20 Бит/Пиксели
Аудио Rus: MPEG Audio at 128 Кбит/сек, 2 канала, 48,0 КГц |NewStudio|
Аудио Eng: MPEG Audio at 128 Кбит/сек, 2 канала, 48,0 КГц |Original|
Cубтитры: отсутствуют
- -
  • Где рай, там и дом (Where Paradise Is Home)
  • Не обсуждайте свою прошлую жизнь (Do Not Discuss Your Life Before)
  • Наш город, наши правила (Our Town, Our Law)
  • Один из старейших риэлтэров решил уйти на пенсию (One of Our Senior Realtors Has Chosen to Retire)
  • Правда (The Truth)
  • Решения (Choices)
  • Предательство (Betrayal)
  • Самое дружелюбное место на земле (The Friendliest Place on Earth)
  • Расплата (A Reckoning)
  • Цикл (Cycle)
-
Общее
Полное имя : E:\_Сериалы\_Сериалы\Уэйворд Пайнс\Wayward.Pines.s01.WEBDLRip.NewStudio.TV\Wayward.Pines.s01e01.WEBDLRip.NewStudio.TV.avi
Формат : AVI
Формат/Информация : Audio Video Interleave
Размер файла : 550 Мбайт
Продолжительность : 45 м.
Общий поток : 1688 Кбит/сек
Программа кодирования : VirtualDubMod 1.5.10.2 (build 2540/release)
Библиотека кодирования : VirtualDubMod build 2540/release
Видео
Идентификатор : 0
Формат : MPEG-4 Visual
Профиль формата : Advanced [email protected]
Параметр BVOP формата : 2
Параметр QPel формата : Нет
Параметр GMC формата : Без точки перехода
Параметр матрицы формата : Default (MPEG)
Идентификатор кодека : XVID
Идентификатор кодека/Подсказка : XviD
Продолжительность : 45 м.
Битрейт : 1418 Кбит/сек
Ширина : 720 пикселей
Высота : 400 пикселей
Соотношение сторон : 16:9
Частота кадров : 23,976 кадра/сек
Цветовое пространство : YUV
Субдискретизация насыщенности : 4:2:0
Битовая глубина : 8 бит
Тип развёртки : Прогрессивная
Метод сжатия : С потерями
Бит/(Пиксели*Кадры) : 0.205
Размер потока : 462 Мбайт (84%)
Библиотека кодирования : XviD 64
Аудио #1
Идентификатор : 1
Формат : MPEG Audio
Версия формата : Version 1
Профиль формата : Layer 3
Режим : Joint stereo
Расширение режима : MS Stereo
Идентификатор кодека : 55
Идентификатор кодека/Подсказка : MP3
Продолжительность : 45 м.
Вид битрейта : Постоянный
Битрейт : 128 Кбит/сек
Каналы : 2 канала
Частота : 48,0 КГц
Метод сжатия : С потерями
Размер потока : 41,7 Мбайт (8%)
Выравнивание : Соединение по промежуткам
Продолжительность промежутка : 42 мс. (1,00 видеокадр)
Время предзагрузки промежутка : 504 мс.
Аудио #2
Идентификатор : 2
Формат : MPEG Audio
Версия формата : Version 1
Профиль формата : Layer 3
Режим : Joint stereo
Расширение режима : MS Stereo
Идентификатор кодека : 55
Идентификатор кодека/Подсказка : MP3
Продолжительность : 45 м.
Вид битрейта : Постоянный
Битрейт : 128 Кбит/сек
Каналы : 2 канала
Частота : 48,0 КГц
Метод сжатия : С потерями
Размер потока : 41,7 Мбайт (8%)
Выравнивание : Соединение по промежуткам
Продолжительность промежутка : 42 мс. (1,00 видеокадр)
Время предзагрузки промежутка : 504 мс.
Библиотека кодирования : LAME3.99r
Настройки программы : -m j -V 4 -q 2 -lowpass 17 -b 128
-
-Скриншоты:
-
-
-
1. Открыть торрент
2. Снять галки с тех файлов торрента, которые мы не хотим закачивать. Оставляем только на нужных нам файлах (файле).
3. Нажать О.К.
В клиенте utorrent
Инструкция
1) Открыть торрент

2) Снять галки с тех файлов торрента, которые мы не хотим закачивать:
* либо вручную, снимая с каждого файла галку( скрин №1)
* либо, нажав кнопку "Снять метки (Select None)", сняв сразу со всех файлов(скрин №2)
№1

№2

Оставляем только на нужных нам файлах (файле).

3)Нажать О.К
Добавлена десятая, заключительная, серия первого сезона
Download / Скачать

Хотите скачать бесплатно? Зарегистрируйтесь на сайте (ссылка на регистрацию). Pirat.ca - самый быстрый торрент трекер в рунете!

Как скачивать  ·   Что такое торрент  ·   Рейтинг и ограничения



Последний раз редактировалось: kugesan (2015-07-25 23:57), всего редактировалось 11 раз(а)

spidercola86

3250

Пост 27-Май-2015 16:50 (спустя 2 года 3 месяца)

[Q] 

Спасибо!!! Автору респект!!!
[Профиль]  [ЛС] 

kugesan ®

56639

Пост 27-Май-2015 18:21 (спустя 1 час 31 минута)

[Q] 

Приятного просмотра!!!

_________________

В мире две бесконечности: вселенная и человеческая глупость - Альберт Эйнштен
«Можно вытащить человека из грязи, но нельзя вытащить грязь из человека»!
[Профиль]  [ЛС] 

Viktor2505

Лоцман

Пост 24-Июн-2015 17:25 (спустя 27 дней)

[Q] 

Скорость.............
[Профиль]  [ЛС] 

kugesan ®

56639

Пост 24-Июн-2015 23:10 (спустя 5 часов)

[Q] 

Раздаю как могу.... вот если бы скачавшие помогали, был бы совсем другой коленкор.

_________________

В мире две бесконечности: вселенная и человеческая глупость - Альберт Эйнштен
«Можно вытащить человека из грязи, но нельзя вытащить грязь из человека»!
[Профиль]  [ЛС] 

al_vlasenko

Лоцман

Пост 19-Июл-2015 17:43 (спустя 24 дня)

[Q] 

Скорость! Эй, вернитесь на раздачу...
[Профиль]  [ЛС] 

kugesan ®

56639

Пост 25-Июл-2015 23:55 (спустя 6 дней)

[Q] 

Добавлена десятая, заключительная, серия первого сезона

_________________

В мире две бесконечности: вселенная и человеческая глупость - Альберт Эйнштен
«Можно вытащить человека из грязи, но нельзя вытащить грязь из человека»!
[Профиль]  [ЛС] 

янка-сан

Гроза морей

Пост 18-Дек-2015 21:34 (спустя 4 месяца 23 дня)

[Q] 

благодарю Лови бочку
[Профиль]  [ЛС] 
Показать сообщения:    
Ответить на тему

Текущее время: Сегодня 16:28

Часовой пояс: GMT + 4



Вы не можете начинать темы
Вы не можете отвечать на сообщения
Вы не можете редактировать свои сообщения
Вы не можете удалять свои сообщения
Вы не можете голосовать в опросах
Вы не можете прикреплять файлы к сообщениям
Вы не можете скачивать файлы

▼ Вниз