ML
     
  Уважаемый Гость!
Вы можете поддержать проект и зарегистрироваться у наших партнеров - онлайн-стратегия MyLands. При регистрации в игре Вы получите код, который сможете активировать после регистрации на pirat.ca и получить 1000 дублонов.

Ваш код:
c3360d664ceb84802c84b88ed062a5d134e2ba97
 
     

Налёт / Braquo / Сезон: 2 / Серии: 1-8 из 8 (Оливье Маршаль, Фредерик Шендерфер, Филипп Аим / Olivier Marchal, Frédéric Schoendoerff, Philippe Haïm) [2011 г., триллер, BDRip] MVO (BaibaKo) + Original (Fre)

Ответить на тему
 
Автор
Сообщение

Пост 02-Мар-2013 19:33

[Q] 

Resident

-Налёт / Braquo-- Производство: Франция
Жанр: триллер
Год выпуска: 2011 г.
Продолжительность: 8 х 00:50:00
Перевод: Профессиональный (многоголосый, закадровый) [BaibaKo]Озвучка: Елена Григорьева, Руслан Иванов, Олекса Мельник и Виталий ТкаченкоОригинальный аудиопоток: французский
Режиссер: Оливье Маршаль, Фредерик Шендерфер, Филипп Аим / Olivier Marchal, Frédéric Schoendoerff, Philippe Haïm-В ролях: Жан-Юг Англад, Николя Дювошель, Джозеф Малерба, Кяроль Роше, Жоффруа Тьебо, Ален Фиглаж, Самюэль Ле Бьян, Паскаль Элсо, Жоэль Лефрансуа, Софи Брусталь-Описание: Главные герои сериала — четверо сотрудников судебной полиции Парижского региона. Их жизнь резко меняется, когда их друг и коллега Макс, несправедливо обвиненный, совершает самоубийство. С этого момента четверка начинает вести собственное расследование, чтобы восстановить справедливость и честное имя друга — даже если при этом им приходится рисковать и обходить закон…-
Качество видео: BDRip
Контейнер: AVI
Видео кодек: XviD
Аудио кодек: MP3
Видео: 720x400 (1.80:1), 25 fps, XviD build 50 ~1499 kbps avg, 0.21 bit/pixel
Аудио: Rus: 48 kHz, MPEG Layer 3, 2 ch, ~192.00 kbps avg
Аудио 2: Fre: 48 kHz, MPEG Layer 3, 2 ch, ~192.00 kbps avg
Cубтитры: отсутствуют
Общее
Полное имя : W:\braquo_s02_baibako\Braquo.s02e04.BDRip.XviD.Rus.Fre.BaibaKo.tv.avi
Формат : AVI
Формат/Информация : Audio Video Interleave
Размер файла : 626 Мбайт
Продолжительность : 46 м.
Общий поток : 1892 Кбит/сек
Видео
Идентификатор : 0
Формат : MPEG-4 Visual
Профиль формата : Advanced [email protected]
Параметр BVOP формата : 2
Параметр QPel формата : Нет
Параметр GMC формата : Без точки перехода
Параметр матрицы формата : Default (H.263)
Идентификатор кодека : XVID
Идентификатор кодека/Подсказка : XviD
Продолжительность : 46 м.
Битрейт : 1501 Кбит/сек
Ширина : 720 пикс.
Высота : 400 пикс.
Соотношение сторон : 16:9
Частота кадров : 25,000 кадр/сек
Цветовое пространство : YUV
Подвыборка цветности : 4:2:0
Битовая глубина : 8 бит
Тип развёртки : Прогрессивная
Метод сжатия : С потерями
Бит/(Пиксели*Кадры) : 0.208
Размер потока : 496 Мбайт (79%)
Библиотека кодирования : XviD 1.2.1 (UTC 2008-12-04)
Аудио #1
Идентификатор : 1
Формат : MPEG Audio
Версия формата : Version 1
Профиль формата : Layer 3
Режим : Joint stereo
Расширение режима : MS Stereo
Идентификатор кодека : 55
Идентификатор кодека/Подсказка : MP3
Продолжительность : 46 м.
Вид битрейта : Постоянный
Битрейт : 192 Кбит/сек
Канал(ы) : 2 канала(ов)
Частота : 48,0 КГц
Метод сжатия : С потерями
Размер потока : 63,5 Мбайт (10%)
Выравнивание : Соединение по промежуткам
Продолжительность промежутка : 160 мс. (4,00 видеокадров)
Время предзагрузки промежутка : 216 ms
Заголовок : Braquo.s02e04.BDRip.x264.Rus.Fre.BaibaKo.tv.mp4_track_1_russian_audio
Библиотека кодирования : LAME3.99r
Настройки программы : -m j -V 4 -q 2 -lowpass 18.6 -b 192
Аудио #2
Идентификатор : 2
Формат : MPEG Audio
Версия формата : Version 1
Профиль формата : Layer 3
Режим : Joint stereo
Расширение режима : MS Stereo
Идентификатор кодека : 55
Идентификатор кодека/Подсказка : MP3
Продолжительность : 46 м.
Вид битрейта : Постоянный
Битрейт : 192 Кбит/сек
Канал(ы) : 2 канала(ов)
Частота : 48,0 КГц
Метод сжатия : С потерями
Размер потока : 63,5 Мбайт (10%)
Выравнивание : Соединение по промежуткам
Продолжительность промежутка : 160 мс. (4,00 видеокадров)
Время предзагрузки промежутка : 216 ms
Заголовок : Braquo.s02e04.BDRip.x264.Rus.Fre.BaibaKo.tv.mp4_track_2_french_audio
Библиотека кодирования : LAME3.99r
Настройки программы : -m j -V 4 -q 2 -lowpass 18.6 -b 192
Download / Скачать

Хотите скачать бесплатно? Зарегистрируйтесь на сайте (ссылка на регистрацию). Pirat.ca - самый быстрый торрент трекер в рунете!

Как скачивать  ·   Что такое торрент  ·   Рейтинг и ограничения

lexmar

Корсар

Пост 03-Мар-2013 14:42 (спустя 19 часов)

[Q] 

[Профиль]  [ЛС] 

Vik.Nik.

Лоцман

Пост 14-Дек-2013 11:08 (спустя 9 месяцев 10 дней)

[Q] 

Braquo сериал.Помогите скачать!
[Профиль]  [ЛС] 

skorin

Лоцман

Пост 18-Июл-2014 18:19 (спустя 7 месяцев 4 дня)

[Q] 

Не качается:(
[Профиль]  [ЛС] 
Показать сообщения:    
Ответить на тему

Текущее время: Сегодня 10:07

Часовой пояс: GMT + 4



Вы не можете начинать темы
Вы не можете отвечать на сообщения
Вы не можете редактировать свои сообщения
Вы не можете удалять свои сообщения
Вы не можете голосовать в опросах
Вы не можете прикреплять файлы к сообщениям
Вы не можете скачивать файлы

▼ Вниз