ML
     
  Уважаемый Гость!
Вы можете поддержать проект и зарегистрироваться у наших партнеров - онлайн-стратегия MyLands. При регистрации в игре Вы получите код, который сможете активировать после регистрации на pirat.ca и получить 1000 дублонов.

Ваш код:
5f4e94775bc0501caff7b254e79328d304c817d9
 
     

Сцена / The Scene / Сезон: 01 / Серии: 01-20 (Митчелл Рэйчгут / Mitchell Reichgut) [2004 г., интернет-детектив, WEB-DL] MVO (CGInfo)

Ответить на тему
 
Автор
Сообщение

Пост 29-Мар-2013 15:54

[Q] 

bigxam

Шкипер

-Сцена / The Scene-- Производство: США
Жанр: интернет-детектив
Год выпуска: 2004 г.
Продолжительность: 15-25мин
Перевод: Любительский (многоголосый, закадровый) [CGInfo]
Режиссер: Митчелл Рэйчгут / Mitchell Reichgut-В ролях: Joe Testa, Trice Able, Laura Minarich, Dinarte Freitas, Noah Rothman, Jill Howell, Curt Rosloff, Nick White
Перевод: ID-Daemon
Озвучивание: Sad Kit, Zack, lanz, Skaner, Kineza, Legonaft, ARiS, ID-Daemon, Uncle_Michael, Joss
Работа со звуком: Joss
Работа с видео: ARiS, ID-Daemon, SckraT-Описание: В этом первом в своем роде фильме действие происходит на экране компьютеров его героев, где мы видим, как они общаются в чате. Содержание сериала лучше всего описывают слова главного героя, произносимые за кадром:
Более 200 миллионов людей в мире скачивают музыку, фильмы, сериалы и шоу, игры и другие электронные развлечения. Одна только музыка оценивается в более чем миллиард скачиваний в неделю. Большинство людей которые участвуют в файлообмене, не имеют понятия, откуда они берутся. Они понятия не имеют, что есть целый мир, огромная глобальная инфраструктура, которая существует исключительно для того, чтобы доставать и поглощать новый контент. На верхнем уровне этого механизма - место, откуда берутся фактически все эти файлы, которые потом расползаются по всему миру. Это место, где заключаются сделки, где доступ и идентификация личности ревностно охраняются, и где элитная группа технократов дергает за невидимые рычаги. Те из нас, кто облюбовали себе это место, придумали для него название. Мы называем его "сцена".
Дополнительная информация: В тексте присутствует ненормативная лексика.-
Качество видео: WEB-DLRip
Контейнер: AVI
Видео кодек: XviD
Аудио кодек: MP3
Видео: 800x600, ~400 кбит/сек, ~15.000 fps (более подробно в медиаинфо)
Аудио: 128 кбит/сек, 2ch, 48 КГц
Cубтитры: отсутствуют
General
Complete name : D:\Video\Сериалы\Scene\the_scene_01_by_cginfo.avi
Format : AVI
Format/Info : Audio Video Interleave
File size : 68.9 MiB
Duration : 18mn 5s
Overall bit rate : 533 Kbps
Writing application : VirtualDubMod 1.5.10.2 (build 2540/release)
Writing library : VirtualDubMod build 2540/release
Video
ID : 0
Format : MPEG-4 Visual
Format profile : Advanced [email protected]
Format settings, BVOP : 3
Format settings, QPel : No
Format settings, GMC : No warppoints
Format settings, Matrix : Default (MPEG)
Codec ID : XVID
Codec ID/Hint : XviD
Duration : 18mn 5s
Bit rate : 399 Kbps
Width : 800 pixels
Height : 600 pixels
Display aspect ratio : 4:3
Frame rate : 14.984 fps
Original frame rate : 14.986 fps
Color space : YUV
Chroma subsampling : 4:2:0
Bit depth : 8 bits
Scan type : Progressive
Compression mode : Lossy
Bits/(Pixel*Frame) : 0.055
Stream size : 51.6 MiB (75%)
Writing library : XviD 1.2.1 (UTC 2008-12-04)
Audio
ID : 1
Format : MPEG Audio
Format version : Version 1
Format profile : Layer 3
Mode : Joint stereo
Mode extension : MS Stereo
Codec ID : 55
Codec ID/Hint : MP3
Duration : 18mn 5s
Bit rate mode : Constant
Bit rate : 128 Kbps
Channel(s) : 2 channels
Sampling rate : 48.0 KHz
Compression mode : Lossy
Stream size : 16.6 MiB (24%)
Alignment : Aligned on interleaves
Interleave, duration : 67 ms (1.00 video frame)
Interleave, preload duration : 504 ms
General
Complete name : D:\Video\Сериалы\Scene\the_scene_02_by_cginfo.avi
Format : AVI
Format/Info : Audio Video Interleave
File size : 50.7 MiB
Duration : 18mn 34s
Overall bit rate : 381 Kbps
Writing application : VirtualDubMod 1.5.10.2 (build 2540/release)
Writing library : VirtualDubMod build 2540/release
Video
ID : 0
Format : MPEG-4 Visual
Format profile : Advanced [email protected]
Format settings, BVOP : 3
Format settings, QPel : No
Format settings, GMC : No warppoints
Format settings, Matrix : Default (MPEG)
Codec ID : XVID
Codec ID/Hint : XviD
Duration : 18mn 34s
Bit rate : 249 Kbps
Width : 800 pixels
Height : 600 pixels
Display aspect ratio : 4:3
Frame rate : 9.990 fps
Color space : YUV
Chroma subsampling : 4:2:0
Bit depth : 8 bits
Scan type : Progressive
Compression mode : Lossy
Bits/(Pixel*Frame) : 0.052
Stream size : 33.1 MiB (65%)
Writing library : XviD 1.2.1 (UTC 2008-12-04)
Audio
ID : 1
Format : MPEG Audio
Format version : Version 1
Format profile : Layer 3
Mode : Joint stereo
Mode extension : MS Stereo
Codec ID : 55
Codec ID/Hint : MP3
Duration : 18mn 34s
Bit rate mode : Constant
Bit rate : 128 Kbps
Channel(s) : 2 channels
Sampling rate : 48.0 KHz
Compression mode : Lossy
Stream size : 17.0 MiB (34%)
Alignment : Aligned on interleaves
Interleave, duration : 100 ms (1.00 video frame)
Interleave, preload duration : 504 ms
General
Complete name : D:\Video\Сериалы\Scene\the_scene_03_by_cginfo.avi
Format : AVI
Format/Info : Audio Video Interleave
File size : 63.1 MiB
Duration : 15mn 25s
Overall bit rate : 572 Kbps
Writing application : VirtualDubMod 1.5.10.2 (build 2540/release)
Writing library : VirtualDubMod build 2540/release
Video
ID : 0
Format : MPEG-4 Visual
Format profile : Advanced [email protected]
Format settings, BVOP : 3
Format settings, QPel : No
Format settings, GMC : No warppoints
Format settings, Matrix : Default (MPEG)
Codec ID : XVID
Codec ID/Hint : XviD
Duration : 15mn 25s
Bit rate : 435 Kbps
Width : 800 pixels
Height : 600 pixels
Display aspect ratio : 4:3
Frame rate : 24.000 fps
Color space : YUV
Chroma subsampling : 4:2:0
Bit depth : 8 bits
Scan type : Progressive
Compression mode : Lossy
Bits/(Pixel*Frame) : 0.038
Stream size : 48.0 MiB (76%)
Writing library : XviD 1.2.1 (UTC 2008-12-04)
Audio
ID : 1
Format : MPEG Audio
Format version : Version 1
Format profile : Layer 3
Mode : Joint stereo
Mode extension : MS Stereo
Codec ID : 55
Codec ID/Hint : MP3
Duration : 15mn 25s
Bit rate mode : Constant
Bit rate : 128 Kbps
Channel(s) : 2 channels
Sampling rate : 48.0 KHz
Compression mode : Lossy
Stream size : 14.1 MiB (22%)
Alignment : Aligned on interleaves
Interleave, duration : 42 ms (1.00 video frame)
Interleave, preload duration : 504 ms
General
Complete name : D:\Video\Сериалы\Scene\the_scene_04_by_cginfo.avi
Format : AVI
Format/Info : Audio Video Interleave
File size : 57.1 MiB
Duration : 12mn 6s
Overall bit rate : 659 Kbps
Writing application : VirtualDubMod 1.5.10.2 (build 2540/release)
Writing library : VirtualDubMod build 2540/release
Video
ID : 0
Format : MPEG-4 Visual
Format profile : Advanced [email protected]
Format settings, BVOP : 3
Format settings, QPel : No
Format settings, GMC : No warppoints
Format settings, Matrix : Default (MPEG)
Codec ID : XVID
Codec ID/Hint : XviD
Duration : 12mn 6s
Bit rate : 522 Kbps
Width : 800 pixels
Height : 600 pixels
Display aspect ratio : 4:3
Frame rate : 24.000 fps
Color space : YUV
Chroma subsampling : 4:2:0
Bit depth : 8 bits
Scan type : Progressive
Compression mode : Lossy
Bits/(Pixel*Frame) : 0.045
Stream size : 45.2 MiB (79%)
Writing library : XviD 1.2.1 (UTC 2008-12-04)
Audio
ID : 1
Format : MPEG Audio
Format version : Version 1
Format profile : Layer 3
Mode : Joint stereo
Mode extension : MS Stereo
Codec ID : 55
Codec ID/Hint : MP3
Duration : 12mn 6s
Bit rate mode : Constant
Bit rate : 128 Kbps
Channel(s) : 2 channels
Sampling rate : 48.0 KHz
Compression mode : Lossy
Stream size : 11.1 MiB (19%)
Alignment : Aligned on interleaves
Interleave, duration : 42 ms (1.00 video frame)
Interleave, preload duration : 504 ms
General
Complete name : D:\Video\Сериалы\Scene\the_scene_05_by_cginfo.avi
Format : AVI
Format/Info : Audio Video Interleave
File size : 66.2 MiB
Duration : 14mn 4s
Overall bit rate : 658 Kbps
Writing application : VirtualDubMod 1.5.10.2 (build 2540/release)
Writing library : VirtualDubMod build 2540/release
Video
ID : 0
Format : MPEG-4 Visual
Format profile : Advanced [email protected]
Format settings, BVOP : 2
Format settings, QPel : No
Format settings, GMC : No warppoints
Format settings, Matrix : Default (MPEG)
Codec ID : XVID
Codec ID/Hint : XviD
Duration : 14mn 4s
Bit rate : 520 Kbps
Width : 800 pixels
Height : 600 pixels
Display aspect ratio : 4:3
Frame rate : 23.976 fps
Color space : YUV
Chroma subsampling : 4:2:0
Bit depth : 8 bits
Scan type : Progressive
Compression mode : Lossy
Bits/(Pixel*Frame) : 0.045
Stream size : 52.4 MiB (79%)
Writing library : XviD 1.2.1 (UTC 2008-12-04)
Audio
ID : 1
Format : MPEG Audio
Format version : Version 1
Format profile : Layer 3
Mode : Joint stereo
Mode extension : MS Stereo
Codec ID : 55
Codec ID/Hint : MP3
Duration : 14mn 4s
Bit rate mode : Constant
Bit rate : 128 Kbps
Channel(s) : 2 channels
Sampling rate : 48.0 KHz
Compression mode : Lossy
Stream size : 12.9 MiB (19%)
Alignment : Aligned on interleaves
Interleave, duration : 42 ms (1.00 video frame)
Interleave, preload duration : 504 ms
General
Complete name : D:\Video\Сериалы\Scene\the_scene_06_by_cginfo.avi
Format : AVI
Format/Info : Audio Video Interleave
File size : 94.9 MiB
Duration : 20mn 16s
Overall bit rate : 654 Kbps
Writing application : VirtualDubMod 1.5.10.2 (build 2540/release)
Writing library : VirtualDubMod build 2540/release
Video
ID : 0
Format : MPEG-4 Visual
Format profile : Advanced [email protected]
Format settings, BVOP : 2
Format settings, QPel : No
Format settings, GMC : No warppoints
Format settings, Matrix : Default (MPEG)
Codec ID : XVID
Codec ID/Hint : XviD
Duration : 20mn 16s
Bit rate : 517 Kbps
Width : 800 pixels
Height : 600 pixels
Display aspect ratio : 4:3
Frame rate : 23.976 fps
Color space : YUV
Chroma subsampling : 4:2:0
Bit depth : 8 bits
Scan type : Progressive
Compression mode : Lossy
Bits/(Pixel*Frame) : 0.045
Stream size : 75.0 MiB (79%)
Writing library : XviD 1.2.1 (UTC 2008-12-04)
Audio
ID : 1
Format : MPEG Audio
Format version : Version 1
Format profile : Layer 3
Mode : Joint stereo
Mode extension : MS Stereo
Codec ID : 55
Codec ID/Hint : MP3
Duration : 20mn 16s
Bit rate mode : Constant
Bit rate : 128 Kbps
Channel(s) : 2 channels
Sampling rate : 48.0 KHz
Compression mode : Lossy
Stream size : 18.6 MiB (20%)
Alignment : Aligned on interleaves
Interleave, duration : 42 ms (1.00 video frame)
Interleave, preload duration : 504 ms
General
Complete name : D:\Video\Сериалы\Scene\the_scene_07_by_cginfo.avi
Format : AVI
Format/Info : Audio Video Interleave
File size : 92.9 MiB
Duration : 19mn 50s
Overall bit rate : 654 Kbps
Writing application : VirtualDubMod 1.5.10.2 (build 2540/release)
Writing library : VirtualDubMod build 2540/release
Video
ID : 0
Format : MPEG-4 Visual
Format profile : Advanced [email protected]
Format settings, BVOP : 2
Format settings, QPel : No
Format settings, GMC : No warppoints
Format settings, Matrix : Default (MPEG)
Codec ID : XVID
Codec ID/Hint : XviD
Duration : 19mn 50s
Bit rate : 517 Kbps
Width : 800 pixels
Height : 600 pixels
Display aspect ratio : 4:3
Frame rate : 23.976 fps
Color space : YUV
Chroma subsampling : 4:2:0
Bit depth : 8 bits
Scan type : Progressive
Compression mode : Lossy
Bits/(Pixel*Frame) : 0.045
Stream size : 73.4 MiB (79%)
Writing library : XviD 1.2.1 (UTC 2008-12-04)
Audio
ID : 1
Format : MPEG Audio
Format version : Version 1
Format profile : Layer 3
Mode : Joint stereo
Mode extension : MS Stereo
Codec ID : 55
Codec ID/Hint : MP3
Duration : 19mn 50s
Bit rate mode : Constant
Bit rate : 128 Kbps
Channel(s) : 2 channels
Sampling rate : 48.0 KHz
Compression mode : Lossy
Stream size : 18.2 MiB (20%)
Alignment : Aligned on interleaves
Interleave, duration : 42 ms (1.00 video frame)
Interleave, preload duration : 504 ms
General
Complete name : D:\Video\Сериалы\Scene\the_scene_08_by_cginfo.avi
Format : AVI
Format/Info : Audio Video Interleave
File size : 133 MiB
Duration : 24mn 59s
Overall bit rate : 745 Kbps
Writing application : VirtualDubMod 1.5.10.2 (build 2540/release)
Writing library : VirtualDubMod build 2540/release
Video
ID : 0
Format : MPEG-4 Visual
Format profile : Advanced [email protected]
Format settings, BVOP : 3
Format settings, QPel : No
Format settings, GMC : No warppoints
Format settings, Matrix : Default (MPEG)
Codec ID : XVID
Codec ID/Hint : XviD
Duration : 24mn 59s
Bit rate : 606 Kbps
Width : 800 pixels
Height : 600 pixels
Display aspect ratio : 4:3
Frame rate : 29.970 fps
Color space : YUV
Chroma subsampling : 4:2:0
Bit depth : 8 bits
Scan type : Progressive
Compression mode : Lossy
Bits/(Pixel*Frame) : 0.042
Stream size : 108 MiB (81%)
Writing library : XviD 1.2.1 (UTC 2008-12-04)
Audio
ID : 1
Format : MPEG Audio
Format version : Version 1
Format profile : Layer 3
Mode : Joint stereo
Codec ID : 55
Codec ID/Hint : MP3
Duration : 24mn 59s
Bit rate mode : Constant
Bit rate : 128 Kbps
Channel(s) : 2 channels
Sampling rate : 48.0 KHz
Compression mode : Lossy
Stream size : 22.9 MiB (17%)
Alignment : Aligned on interleaves
Interleave, duration : 33 ms (1.00 video frame)
Interleave, preload duration : 504 ms
General
Complete name : D:\Video\Сериалы\Scene\the_scene_09_by_cginfo.avi
Format : AVI
Format/Info : Audio Video Interleave
File size : 68.5 MiB
Duration : 14mn 50s
Overall bit rate : 645 Kbps
Writing application : VirtualDubMod 1.5.10.2 (build 2540/release)
Writing library : VirtualDubMod build 2540/release
Video
ID : 0
Format : MPEG-4 Visual
Format profile : Advanced [email protected]
Format settings, BVOP : 3
Format settings, QPel : No
Format settings, GMC : No warppoints
Format settings, Matrix : Default (MPEG)
Codec ID : XVID
Codec ID/Hint : XviD
Duration : 14mn 50s
Bit rate : 511 Kbps
Width : 800 pixels
Height : 600 pixels
Display aspect ratio : 4:3
Frame rate : 15.000 fps
Color space : YUV
Chroma subsampling : 4:2:0
Bit depth : 8 bits
Scan type : Progressive
Compression mode : Lossy
Bits/(Pixel*Frame) : 0.071
Stream size : 54.3 MiB (79%)
Writing library : XviD 1.2.1 (UTC 2008-12-04)
Audio
ID : 1
Format : MPEG Audio
Format version : Version 1
Format profile : Layer 3
Mode : Joint stereo
Mode extension : MS Stereo
Codec ID : 55
Codec ID/Hint : MP3
Duration : 14mn 50s
Bit rate mode : Constant
Bit rate : 128 Kbps
Channel(s) : 2 channels
Sampling rate : 48.0 KHz
Compression mode : Lossy
Stream size : 13.6 MiB (20%)
Alignment : Aligned on interleaves
Interleave, duration : 67 ms (1.00 video frame)
Interleave, preload duration : 504 ms
General
Complete name : D:\Video\Сериалы\Scene\the_scene_10_by_cginfo.avi
Format : AVI
Format/Info : Audio Video Interleave
File size : 93.7 MiB
Duration : 17mn 15s
Overall bit rate : 759 Kbps
Writing application : VirtualDubMod 1.5.10.2 (build 2540/release)
Writing library : VirtualDubMod build 2540/release
Video
ID : 0
Format : MPEG-4 Visual
Format profile : Advanced [email protected]
Format settings, BVOP : 3
Format settings, QPel : No
Format settings, GMC : No warppoints
Format settings, Matrix : Default (MPEG)
Codec ID : XVID
Codec ID/Hint : XviD
Duration : 17mn 15s
Bit rate : 619 Kbps
Width : 800 pixels
Height : 600 pixels
Display aspect ratio : 4:3
Frame rate : 29.970 fps
Color space : YUV
Chroma subsampling : 4:2:0
Bit depth : 8 bits
Scan type : Progressive
Compression mode : Lossy
Bits/(Pixel*Frame) : 0.043
Stream size : 76.4 MiB (82%)
Writing library : XviD 1.2.1 (UTC 2008-12-04)
Audio
ID : 1
Format : MPEG Audio
Format version : Version 1
Format profile : Layer 3
Mode : Joint stereo
Mode extension : MS Stereo
Codec ID : 55
Codec ID/Hint : MP3
Duration : 17mn 15s
Bit rate mode : Constant
Bit rate : 128 Kbps
Channel(s) : 2 channels
Sampling rate : 48.0 KHz
Compression mode : Lossy
Stream size : 15.8 MiB (17%)
Alignment : Aligned on interleaves
Interleave, duration : 33 ms (1.00 video frame)
Interleave, preload duration : 504 ms
General
Complete name : D:\Video\Сериалы\Scene\the_scene_11_by_cginfo.avi
Format : AVI
Format/Info : Audio Video Interleave
File size : 103 MiB
Duration : 19mn 26s
Overall bit rate : 739 Kbps
Writing application : VirtualDubMod 1.5.10.2 (build 2540/release)
Writing library : VirtualDubMod build 2540/release
Video
ID : 0
Format : MPEG-4 Visual
Format profile : Advanced [email protected]
Format settings, BVOP : 3
Format settings, QPel : No
Format settings, GMC : No warppoints
Format settings, Matrix : Default (MPEG)
Codec ID : XVID
Codec ID/Hint : XviD
Duration : 19mn 26s
Bit rate : 599 Kbps
Width : 800 pixels
Height : 600 pixels
Display aspect ratio : 4:3
Frame rate : 29.229 fps
Original frame rate : 29.231 fps
Color space : YUV
Chroma subsampling : 4:2:0
Bit depth : 8 bits
Scan type : Progressive
Compression mode : Lossy
Bits/(Pixel*Frame) : 0.043
Stream size : 83.3 MiB (81%)
Writing library : XviD 1.2.1 (UTC 2008-12-04)
Audio
ID : 1
Format : MPEG Audio
Format version : Version 1
Format profile : Layer 3
Mode : Joint stereo
Mode extension : MS Stereo
Codec ID : 55
Codec ID/Hint : MP3
Duration : 19mn 26s
Bit rate mode : Constant
Bit rate : 128 Kbps
Channel(s) : 2 channels
Sampling rate : 48.0 KHz
Compression mode : Lossy
Stream size : 17.8 MiB (17%)
Alignment : Aligned on interleaves
Interleave, duration : 34 ms (1.00 video frame)
Interleave, preload duration : 504 ms
General
Complete name : D:\Video\Сериалы\Scene\the_scene_12_by_cginfo.avi
Format : AVI
Format/Info : Audio Video Interleave
File size : 59.7 MiB
Duration : 15mn 38s
Overall bit rate : 533 Kbps
Writing application : VirtualDubMod 1.5.10.2 (build 2540/release)
Writing library : VirtualDubMod build 2540/release
Video
ID : 0
Format : MPEG-4 Visual
Format profile : Advanced [email protected]
Format settings, BVOP : 3
Format settings, QPel : No
Format settings, GMC : No warppoints
Format settings, Matrix : Default (MPEG)
Codec ID : XVID
Codec ID/Hint : XviD
Duration : 15mn 38s
Bit rate : 399 Kbps
Width : 800 pixels
Height : 600 pixels
Display aspect ratio : 4:3
Frame rate : 15.000 fps
Color space : YUV
Chroma subsampling : 4:2:0
Bit depth : 8 bits
Scan type : Progressive
Compression mode : Lossy
Bits/(Pixel*Frame) : 0.055
Stream size : 44.7 MiB (75%)
Writing library : XviD 1.2.1 (UTC 2008-12-04)
Audio
ID : 1
Format : MPEG Audio
Format version : Version 1
Format profile : Layer 3
Mode : Joint stereo
Mode extension : MS Stereo
Codec ID : 55
Codec ID/Hint : MP3
Duration : 15mn 38s
Bit rate mode : Constant
Bit rate : 128 Kbps
Channel(s) : 2 channels
Sampling rate : 48.0 KHz
Compression mode : Lossy
Stream size : 14.3 MiB (24%)
Alignment : Aligned on interleaves
Interleave, duration : 67 ms (1.00 video frame)
Interleave, preload duration : 504 ms
General
Complete name : D:\Video\Сериалы\Scene\the_scene_13_by_cginfo.avi
Format : AVI
Format/Info : Audio Video Interleave
File size : 182 MiB
Duration : 32mn 10s
Overall bit rate : 789 Kbps
Writing application : VirtualDubMod 1.5.10.2 (build 2540/release)
Writing library : VirtualDubMod build 2540/release
Video
ID : 0
Format : MPEG-4 Visual
Format profile : Advanced [email protected]
Format settings, BVOP : 3
Format settings, QPel : No
Format settings, GMC : No warppoints
Format settings, Matrix : Default (MPEG)
Codec ID : XVID
Codec ID/Hint : XviD
Duration : 32mn 10s
Bit rate : 649 Kbps
Width : 800 pixels
Height : 600 pixels
Display aspect ratio : 4:3
Frame rate : 29.970 fps
Color space : YUV
Chroma subsampling : 4:2:0
Bit depth : 8 bits
Scan type : Progressive
Compression mode : Lossy
Bits/(Pixel*Frame) : 0.045
Stream size : 149 MiB (82%)
Writing library : XviD 1.2.1 (UTC 2008-12-04)
Audio
ID : 1
Format : MPEG Audio
Format version : Version 1
Format profile : Layer 3
Mode : Joint stereo
Mode extension : MS Stereo
Codec ID : 55
Codec ID/Hint : MP3
Duration : 32mn 10s
Bit rate mode : Constant
Bit rate : 128 Kbps
Channel(s) : 2 channels
Sampling rate : 48.0 KHz
Compression mode : Lossy
Stream size : 29.5 MiB (16%)
Alignment : Aligned on interleaves
Interleave, duration : 33 ms (1.00 video frame)
Interleave, preload duration : 504 ms
General
Complete name : D:\Video\Сериалы\Scene\the_scene_14_by_cginfo.avi
Format : AVI
Format/Info : Audio Video Interleave
File size : 128 MiB
Duration : 24mn 14s
Overall bit rate : 739 Kbps
Writing application : VirtualDubMod 1.5.10.2 (build 2540/release)
Writing library : VirtualDubMod build 2540/release
Video
ID : 0
Format : MPEG-4 Visual
Format profile : Advanced [email protected]
Format settings, BVOP : 3
Format settings, QPel : No
Format settings, GMC : No warppoints
Format settings, Matrix : Default (MPEG)
Codec ID : XVID
Codec ID/Hint : XviD
Duration : 24mn 14s
Bit rate : 599 Kbps
Width : 800 pixels
Height : 600 pixels
Display aspect ratio : 4:3
Frame rate : 29.970 fps
Color space : YUV
Chroma subsampling : 4:2:0
Bit depth : 8 bits
Scan type : Progressive
Compression mode : Lossy
Bits/(Pixel*Frame) : 0.042
Stream size : 104 MiB (81%)
Writing library : XviD 1.2.1 (UTC 2008-12-04)
Audio
ID : 1
Format : MPEG Audio
Format version : Version 1
Format profile : Layer 3
Mode : Joint stereo
Mode extension : MS Stereo
Codec ID : 55
Codec ID/Hint : MP3
Duration : 24mn 14s
Bit rate mode : Constant
Bit rate : 128 Kbps
Channel(s) : 2 channels
Sampling rate : 48.0 KHz
Compression mode : Lossy
Stream size : 22.2 MiB (17%)
Alignment : Aligned on interleaves
Interleave, duration : 33 ms (1.00 video frame)
Interleave, preload duration : 504 ms
General
Complete name : D:\Video\Сериалы\Scene\the_scene_15_by_cginfo.avi
Format : AVI
Format/Info : Audio Video Interleave
File size : 121 MiB
Duration : 22mn 57s
Overall bit rate : 739 Kbps
Writing application : VirtualDubMod 1.5.10.2 (build 2540/release)
Writing library : VirtualDubMod build 2540/release
Video
ID : 0
Format : MPEG-4 Visual
Format profile : Advanced [email protected]
Format settings, BVOP : 2
Format settings, QPel : No
Format settings, GMC : No warppoints
Format settings, Matrix : Default (MPEG)
Codec ID : XVID
Codec ID/Hint : XviD
Duration : 22mn 57s
Bit rate : 600 Kbps
Width : 800 pixels
Height : 600 pixels
Display aspect ratio : 4:3
Frame rate : 29.970 fps
Color space : YUV
Chroma subsampling : 4:2:0
Bit depth : 8 bits
Scan type : Progressive
Compression mode : Lossy
Bits/(Pixel*Frame) : 0.042
Stream size : 98.5 MiB (81%)
Writing library : XviD 1.2.1 (UTC 2008-12-04)
Audio
ID : 1
Format : MPEG Audio
Format version : Version 1
Format profile : Layer 3
Mode : Joint stereo
Mode extension : MS Stereo
Codec ID : 55
Codec ID/Hint : MP3
Duration : 22mn 57s
Bit rate mode : Constant
Bit rate : 128 Kbps
Channel(s) : 2 channels
Sampling rate : 48.0 KHz
Compression mode : Lossy
Stream size : 21.0 MiB (17%)
Alignment : Aligned on interleaves
Interleave, duration : 33 ms (1.00 video frame)
Interleave, preload duration : 504 ms
General
Complete name : D:\Video\Сериалы\Scene\the_scene_16_by_cginfo.avi
Format : AVI
Format/Info : Audio Video Interleave
File size : 112 MiB
Duration : 21mn 12s
Overall bit rate : 739 Kbps
Writing application : VirtualDubMod 1.5.10.2 (build 2540/release)
Writing library : VirtualDubMod build 2540/release
Video
ID : 0
Format : MPEG-4 Visual
Format profile : Advanced [email protected]
Format settings, BVOP : 2
Format settings, QPel : No
Format settings, GMC : No warppoints
Format settings, Matrix : Default (MPEG)
Codec ID : XVID
Codec ID/Hint : XviD
Duration : 21mn 12s
Bit rate : 599 Kbps
Width : 800 pixels
Height : 600 pixels
Display aspect ratio : 4:3
Frame rate : 29.970 fps
Color space : YUV
Chroma subsampling : 4:2:0
Bit depth : 8 bits
Scan type : Progressive
Compression mode : Lossy
Bits/(Pixel*Frame) : 0.042
Stream size : 90.9 MiB (81%)
Writing library : XviD 1.2.1 (UTC 2008-12-04)
Audio
ID : 1
Format : MPEG Audio
Format version : Version 1
Format profile : Layer 3
Mode : Joint stereo
Mode extension : MS Stereo
Codec ID : 55
Codec ID/Hint : MP3
Duration : 21mn 12s
Bit rate mode : Constant
Bit rate : 128 Kbps
Channel(s) : 2 channels
Sampling rate : 48.0 KHz
Compression mode : Lossy
Stream size : 19.4 MiB (17%)
Alignment : Aligned on interleaves
Interleave, duration : 33 ms (1.00 video frame)
Interleave, preload duration : 504 ms
General
Complete name : D:\Video\Сериалы\Scene\the_scene_17_by_cginfo.avi
Format : AVI
Format/Info : Audio Video Interleave
File size : 84.3 MiB
Duration : 11mn 38s
Overall bit rate : 1 012 Kbps
Writing application : VirtualDubMod 1.5.10.2 (build 2540/release)
Writing library : VirtualDubMod build 2540/release
Video
ID : 0
Format : MPEG-4 Visual
Format profile : Advanced [email protected]
Format settings, BVOP : 2
Format settings, QPel : No
Format settings, GMC : No warppoints
Format settings, Matrix : Default (H.263)
Muxing mode : Packed bitstream
Codec ID : XVID
Codec ID/Hint : XviD
Duration : 11mn 38s
Bit rate : 738 Kbps
Width : 800 pixels
Height : 600 pixels
Display aspect ratio : 4:3
Frame rate : 29.970 fps
Color space : YUV
Chroma subsampling : 4:2:0
Bit depth : 8 bits
Scan type : Progressive
Compression mode : Lossy
Bits/(Pixel*Frame) : 0.051
Stream size : 61.5 MiB (73%)
Writing library : XviD 1.0.3 (UTC 2004-12-20)
Audio #1
ID : 1
Format : MPEG Audio
Format version : Version 1
Format profile : Layer 3
Mode : Joint stereo
Mode extension : MS Stereo
Codec ID : 55
Codec ID/Hint : MP3
Duration : 11mn 38s
Bit rate mode : Constant
Bit rate : 128 Kbps
Channel(s) : 2 channels
Sampling rate : 48.0 KHz
Compression mode : Lossy
Stream size : 10.7 MiB (13%)
Alignment : Aligned on interleaves
Interleave, duration : 33 ms (1.00 video frame)
Interleave, preload duration : 504 ms
Audio #2
ID : 2
Format : MPEG Audio
Format version : Version 1
Format profile : Layer 3
Mode : Joint stereo
Mode extension : MS Stereo
Codec ID : 55
Codec ID/Hint : MP3
Duration : 11mn 38s
Bit rate mode : Constant
Bit rate : 128 Kbps
Channel(s) : 2 channels
Sampling rate : 44.1 KHz
Compression mode : Lossy
Stream size : 10.7 MiB (13%)
Alignment : Split accross interleaves
Interleave, duration : 33 ms (1.00 video frame)
Interleave, preload duration : 500 ms
General
Complete name : D:\Video\Сериалы\Scene\the_scene_18_by_cginfo.avi
Format : AVI
Format/Info : Audio Video Interleave
File size : 162 MiB
Duration : 30mn 40s
Overall bit rate : 739 Kbps
Writing application : VirtualDubMod 1.5.10.2 (build 2540/release)
Writing library : VirtualDubMod build 2540/release
Video
ID : 0
Format : MPEG-4 Visual
Format profile : Advanced [email protected]
Format settings, BVOP : 3
Format settings, QPel : No
Format settings, GMC : No warppoints
Format settings, Matrix : Default (MPEG)
Codec ID : XVID
Codec ID/Hint : XviD
Duration : 30mn 40s
Bit rate : 599 Kbps
Width : 800 pixels
Height : 600 pixels
Display aspect ratio : 4:3
Frame rate : 29.970 fps
Color space : YUV
Chroma subsampling : 4:2:0
Bit depth : 8 bits
Scan type : Progressive
Compression mode : Lossy
Bits/(Pixel*Frame) : 0.042
Stream size : 132 MiB (81%)
Writing library : XviD 1.2.1 (UTC 2008-12-04)
Audio
ID : 1
Format : MPEG Audio
Format version : Version 1
Format profile : Layer 3
Mode : Joint stereo
Mode extension : MS Stereo
Codec ID : 55
Codec ID/Hint : MP3
Duration : 30mn 40s
Bit rate mode : Constant
Bit rate : 128 Kbps
Channel(s) : 2 channels
Sampling rate : 48.0 KHz
Compression mode : Lossy
Stream size : 28.1 MiB (17%)
Alignment : Aligned on interleaves
Interleave, duration : 33 ms (1.00 video frame)
Interleave, preload duration : 504 ms
General
Complete name : D:\Video\Сериалы\Scene\the_scene_19_by_cginfo.avi
Format : AVI
Format/Info : Audio Video Interleave
File size : 133 MiB
Duration : 25mn 12s
Overall bit rate : 739 Kbps
Writing application : VirtualDubMod 1.5.10.2 (build 2540/release)
Writing library : VirtualDubMod build 2540/release
Video
ID : 0
Format : MPEG-4 Visual
Format profile : Advanced [email protected]
Format settings, BVOP : 3
Format settings, QPel : No
Format settings, GMC : No warppoints
Format settings, Matrix : Default (MPEG)
Codec ID : XVID
Codec ID/Hint : XviD
Duration : 25mn 12s
Bit rate : 599 Kbps
Width : 800 pixels
Height : 600 pixels
Display aspect ratio : 4:3
Frame rate : 29.970 fps
Color space : YUV
Chroma subsampling : 4:2:0
Bit depth : 8 bits
Scan type : Progressive
Compression mode : Lossy
Bits/(Pixel*Frame) : 0.042
Stream size : 108 MiB (81%)
Writing library : XviD 1.2.1 (UTC 2008-12-04)
Audio
ID : 1
Format : MPEG Audio
Format version : Version 1
Format profile : Layer 3
Mode : Joint stereo
Mode extension : MS Stereo
Codec ID : 55
Codec ID/Hint : MP3
Duration : 25mn 12s
Bit rate mode : Constant
Bit rate : 128 Kbps
Channel(s) : 2 channels
Sampling rate : 48.0 KHz
Compression mode : Lossy
Stream size : 23.1 MiB (17%)
Alignment : Aligned on interleaves
Interleave, duration : 33 ms (1.00 video frame)
Interleave, preload duration : 504 ms
General
Complete name : D:\Video\Сериалы\Scene\the_scene_20_by_cginfo.avi
Format : AVI
Format/Info : Audio Video Interleave
File size : 124 MiB
Duration : 23mn 26s
Overall bit rate : 739 Kbps
Writing application : VirtualDubMod 1.5.10.2 (build 2540/release)
Writing library : VirtualDubMod build 2540/release
Video
ID : 0
Format : MPEG-4 Visual
Format profile : Advanced [email protected]
Format settings, BVOP : 3
Format settings, QPel : No
Format settings, GMC : No warppoints
Format settings, Matrix : Default (MPEG)
Codec ID : XVID
Codec ID/Hint : XviD
Duration : 23mn 26s
Bit rate : 599 Kbps
Width : 800 pixels
Height : 600 pixels
Display aspect ratio : 4:3
Frame rate : 29.970 fps
Color space : YUV
Chroma subsampling : 4:2:0
Bit depth : 8 bits
Scan type : Progressive
Compression mode : Lossy
Bits/(Pixel*Frame) : 0.042
Stream size : 100 MiB (81%)
Writing library : XviD 1.2.1 (UTC 2008-12-04)
Audio
ID : 1
Format : MPEG Audio
Format version : Version 1
Format profile : Layer 3
Mode : Joint stereo
Mode extension : MS Stereo
Codec ID : 55
Codec ID/Hint : MP3
Duration : 23mn 26s
Bit rate mode : Constant
Bit rate : 128 Kbps
Channel(s) : 2 channels
Sampling rate : 48.0 KHz
Compression mode : Lossy
Stream size : 21.5 MiB (17%)
Alignment : Aligned on interleaves
Interleave, duration : 33 ms (1.00 video frame)
Interleave, preload duration : 504 ms
Сериал уникальный по формату, это не кино, как мы его привыкли видеть, а какой-то другой, новый вид искусства. За все эти годы никто, никто не снял ничего подобного. Персонажей фильма мы видим лишь в маленьком окне, основное место в видеоряде занимает изображение экрана компьютера. Основные события происходят именно там.
Атмосфера производит неизгладимое впечатление. Зритель следит за происходящим на экране компьютера, слышит стук клавиш, музыку, которую слушает персонаж. Мы видим то, что сегодня привыкли делать каждый день, и уже не замечаем, как это выглядит. Зритель как бы оказывается на месте героев фильма.
Главные герои - участники пиратской сценовой рип-группы, распространяющей фильмы-новинки, до их официального выхода. Сюжет закручивается вокруг того, что бывает, если в процесс файлообмена вклиниваются деньги, и чем это может кончиться.
Сериал распространяется по лицензии Creative Commons, то есть это свободный сериал, снятый независимыми продюсерами.
Помните фильм 1995 года "Хакеры"? Я одна из тех людей, кто смотрели его уже дюжину раз и все же он мне не нравится. Думаю причина в том, что мне не особенно нравятся метафоры, особенно в таком буквальном виде контента как кинофильм. Хотя большинство зрителей может быть и не против математических символов, летающих вокруг чьей-то головы, как представления того, как они идеализируют компьютерный код, я бы предпочла, чтобы было показано, как персонаж, скажем, воспользовался уязвимостью в версии SSH, которая установлена на сервере (как сделали братья Вачовски в 2003 в "Матрице - перезагрузка"). Как бы вы ни пытались сделать хакинг гламурным на вид, факт остается фактом, хакеры проводят большую часть времени, уставившись в строки текста на плоском экране.
Хорошо это или плохо, но "сцена" - это первый фильм, который не просто снят об интернет-пиратах, он фактически выглядит так, как будто он был сделан для людей из компьютерного сообщества. Практически все диалоги имеют форму текста на компьютерном экране, а именно в IRC-каналах и клиентах быстрого обмена сообщениями, за исключением редких звонков по телефону и бесед лицом-к-лицу. Само живое видео показано в окне, которое занимает меньше четверти экрана. На самом деле вы не столько смотрите шоу, сколько читаете его.
Несмотря на то, как скучно это может звучать, сериал The Scene - интересная идея, которая на удивление неплохо воплощена. Да, у него бюджет, по сравнению с которым "Клерки" выглядят эпично, но это только дает остроту реализма, сравнимую с "Ведьмой из Блер" или Cloverfield. Однако, в отличие от "Ведьмы из Блер", сценарий написан достаточно искусно, чтобы втянуться в историю, полную интриг, заставляющую вас запускать торрент-клиент и скачивать каждый новый эпизод. Недостаток бюджета наверстывается прорисовкой персонажей, сюжета, и новизной как формата, так и использования лицензии Creative Commons.
В самой истории достаточно привлекательного. Она о группе людей, которые никогда не встречались в реале, но тем не менее, находятся в постоянном контакте, с тем чтобы релизить нелегальные копии Голивудских фильмов в интернете. У таких сомнительных персонажей очевидно предостаточно возможностей для конфликтов, и создатель шоу, Mitchell Reichgut, конечно использует этот факт. Они самоуверенны, полны лжи и паранойи, и при этом верные друзья. И причины для паранойи конечно есть - некоторые из них могут оказаться совсем не теми, за кого они себя выдают.
"Сцена" доказывает (по крайней мере тем, кому она нравится, включая меня), что хороший сценарий гораздо более важен чем большой бюджет. И главное, она дает надежду каждому, кто хотел бы создать, или просто найти захватывающее шоу, лицензированное через Creative Commons. Надо признать, пока это конечно не заставит ни один ТВ-канал опасаться конкуренции, но это определенно шаг в верном направлении.
Вот каким должно быть интернет-телевидение: пробовать новые идеи. Думаю можно с уверенностью сказать, что эта идея удалась. Я бы рекомендовала "сцену" людям, которые знают, как её можно скачать, в этом есть определенный смысл. Она была специально сделана для этого нового канала дистрибуции, не только как способа распространения, но и по своему содержанию. Если вы хоть раз смотрели фильм или сериал, который скачали с интернета, этот фильм для вас "must watch".
В России "сцену" могли посмотреть лишь единицы, которые не только каким-то чудом узнали про сериал, но и достаточно хорошо знали английский язык и сленг, чтобы разобраться в невероятно закрученном детективном сюжете.
Атмосфера производит неизгладимое впечатление. Я следил за происходящим на экране компьютера, слушал стук клавиш, музыку, которую слушал персонаж. Я видел то, что мы сегодня привыкли делать каждый день, и уже не замечаем, как это выглядит. Я как бы оказался на месте героев фильма. Иногда инстинктивно хотелось двинуть мышкой какое-нибудь окно или закрыть его. Особенно необычное ощущение, когда мне самому во время просмотра кто-то писал в аське или надо было что-то посмотреть в интернете. Моя виртуальная жизнь перемешивалась с событиями фильма, и от этого происходящее становилось еще загадочнее. За неделю я не торопясь посмотрел все 20 серий.
Я сразу подумал, что неплохо бы это перевести, чтобы те, кто не знает английского, тоже могли посмотреть, сериал явно стоил того. Но как это сделать? Дело в том, что в этом первом в своем роде фильме действие происходит на экране компьютеров его героев, где мы видим, как они общаются в чате. Субтитры только запутали бы зрителя, экран и так перегружен текстом, порой одновременно меняющимся в разных окнах. Закадровый перевод тоже не подошел бы, даже если многоголосый, трудно было бы понять, какую строчку кто проговаривает. Похоже единственный вариант был - перерисовать английские буквы на русские, то есть фактически полностью переделать видео. Но я не знал, как это сделать.
Download / Скачать

Хотите скачать бесплатно? Зарегистрируйтесь на сайте (ссылка на регистрацию). Pirat.ca - самый быстрый торрент трекер в рунете!

Как скачивать  ·   Что такое торрент  ·   Рейтинг и ограничения



Последний раз редактировалось: bigxam (2013-03-31 11:29), всего редактировалось 3 раз(а)

bigxam ®

Шкипер

40

Пост 29-Мар-2013 15:57 (спустя 2 минуты)

[Q] 

Мужики, советую, сам вчера досмотрел и до сих пор под впечатлением!
[Профиль]  [ЛС] 

Smulya

Морской Волк

80

Пост 02-Апр-2014 19:04 (спустя 1 год)

[Q] 

прикольный сериал

_________________
[Профиль]  [ЛС] 
Показать сообщения:    
Ответить на тему

Текущее время: Сегодня 15:38

Часовой пояс: GMT + 4



Вы не можете начинать темы
Вы не можете отвечать на сообщения
Вы не можете редактировать свои сообщения
Вы не можете удалять свои сообщения
Вы не можете голосовать в опросах
Вы не можете прикреплять файлы к сообщениям
Вы не можете скачивать файлы

▼ Вниз