ML
     
  Уважаемый Гость!
Вы можете поддержать проект и зарегистрироваться у наших партнеров - онлайн-стратегия MyLands. При регистрации в игре Вы получите код, который сможете активировать после регистрации на pirat.ca и получить 1000 дублонов.

Ваш код:
a6d1ef7ff63e237add5a4c8b21d8aa937c5e9b4b
 
     

Игра престолов / Game of Thrones (Сезон 3/ Серий 10 из 10) [MEKC-INFO] (Алан Тейлор / Alan Taylor ...) [2013 г.] (Фэнтези, Драма, Приключения) [HDTVRip 720p] (MVO) [Sub Rus/Eng]

Ответить на тему
 
Автор
Сообщение

Пост 10-Апр-2013 00:35

[Q] 

mishanya___

Игра престолов / Game of thrones-3-й сезон Производство: США, Великобритания
Жанр: фэнтези, драма
Год выпуска: 2013 г.
Продолжительность: ~00:56:00 мин. серия
Перевод: Профессиональный (многоголосый, закадровый) "MEKC.INFO"
Режиссеры: Алан Тейлор, Даниэль Минахан, Дэвид Наттер
-
В ролях: Лена Хиди, Николай Костер-Валдау, Питер Динклейдж, Йен Глен, Эмилия Кларк, Кит Харингтон, Стивен Диллэйн, Лиам Каннингем, Кэрис ван Хаутен, Натали Дормер, Гвендолин Кристи, Ханна Мюррей
-
Описание: Люди, отказавшиеся жить по законам Семи Королевств, получили название одичалых и были изгнаны за Стену, на страже которой стоит Ночной Дозор. Но орден был учрежден, чтобы защищать мир людей от совсем другой силы — Белых Ходоков, ныне пробудившихся и угрожающих всему живому. Король одичалых Манс готов на все, чтобы убедить Дозор пропустить свой народ за Стену.
Однако южные лорды и короли как и прежде глухи к сообщениям о скорой зиме, о пробуждении Иных и о вторжении одичалых. Король Станнис Баратеон скрылся после поражения на Черноводной в своем замке, король Бейлон Грейджой разоряет побережье, король Робб теряет союзников, а король Джоффри, напротив, имея в союзниках два самых влиятельных дома Королевств, надеется вскоре разбить всех своих врагов. Третий сезон Игры престолов поставлен по первой половине третьего тома Песни Льда и Пламени (Буря мечей).
- -Качество видео: HDTVRip
Контейнер: MKV
Стандарт разрешения: 720p
Видео кодек: H.264
Аудио кодек: AC3
Видео: 1280x720, ~23.976 fps, ~2850 kbps
Аудио: 48 kHz, AC3, 2/0 (L,R) ch, ~384.00 kbps
Cубтитры: Русские, Английские
Доп. информация о субтитрах: Вшитые, отключаемые
-
General
Format : Matroska
Format version : Version 4 / Version 2
Duration : 58mn 49s
Overall bit rate : 4 419 Kbps
Encoded date : UTC 2013-04-08 18:39:40
Writing application : mkvmerge v6.1.0 ('Old Devil') built on Mar 2 2013 14:32:37
Writing library : libebml v1.3.0 + libmatroska v1.4.0
Video #1
ID : 1
Format : AVC
Format/Info : Advanced Video Codec
Format profile : [email protected]
Format settings, CABAC : Yes
Format settings, ReFrames : 5 frames
Codec ID : V_MPEG4/ISO/AVC
Duration : 58mn 49s
Bit rate : 3 563 Kbps
Width : 1 280 pixels
Height : 714 pixels
Display aspect ratio : 16:9
Frame rate mode : Constant
Frame rate : 23.976 fps
Color space : YUV
Chroma subsampling : 4:2:0
Bit depth : 8 bits
Scan type : Progressive
Bits/(Pixel*Frame) : 0.163
Stream size : 1.46 GiB (81%)
Writing library : x264 core 130 r2273 b3065e6
Encoding settings : cabac=1 / ref=5 / deblock=1:-2:-2 / analyse=0x3:0x113 / me=umh / subme=8 / psy=1 / psy_rd=1.05:0.00 / mixed_ref=1 / me_range=16 / chroma_me=1 / trellis=1 / 8x8dct=1 / cqm=0 / deadzone=21,11 / fast_pskip=1 / chroma_qp_offset=-2 / threads=18 / lookahead_threads=3 / sliced_threads=0 / nr=0 / decimate=1 / interlaced=0 / bluray_compat=0 / constrained_intra=0 / bframes=3 / b_pyramid=2 / b_adapt=2 / b_bias=0 / direct=3 / weightb=1 / open_gop=0 / weightp=2 / keyint=250 / keyint_min=23 / scenecut=40 / intra_refresh=0 / rc_lookahead=50 / rc=crf / mbtree=1 / crf=18.0 / qcomp=0.60 / qpmin=0 / qpmax=69 / qpstep=4 / ip_ratio=1.40 / aq=1:1.10
Language : English
Default : Yes
Forced : No
Audio #2
ID : 2
Format : AC-3
Format/Info : Audio Coding 3
Mode extension : CM (complete main)
Format settings, Endianness : Big
Codec ID : A_AC3
Duration : 58mn 49s
Bit rate mode : Constant
Bit rate : 384 Kbps
Channel(s) : 2 channels
Channel positions : Front: L R
Sampling rate : 48.0 KHz
Bit depth : 16 bits
Compression mode : Lossy
Stream size : 162 MiB (9%)
Title : MVO (MEKC.INFO)
Language : Russian
Default : Yes
Forced : No
Audio #3
ID : 3
Format : AC-3
Format/Info : Audio Coding 3
Mode extension : CM (complete main)
Format settings, Endianness : Big
Codec ID : A_AC3
Duration : 58mn 49s
Bit rate mode : Constant
Bit rate : 384 Kbps
Channel(s) : 2 channels
Channel positions : Front: L R
Sampling rate : 48.0 KHz
Bit depth : 16 bits
Compression mode : Lossy
Stream size : 162 MiB (9%)
Title : Original (English)
Language : English
Default : No
Forced : No
Text #4
ID : 4
Format : UTF-8
Codec ID : S_TEXT/UTF8
Codec ID/Info : UTF-8 Plain Text
Title : Russian Subtitles
Language : Russian
Default : No
Forced : No
Text #5
ID : 5
Format : UTF-8
Codec ID : S_TEXT/UTF8
Codec ID/Info : UTF-8 Plain Text
Title : English Subtitles
Language : English
Default : No
Forced : No

Серия 1: Valar Dohaeris / Валар Дохаэрис
Серия 2: Dark Wings, Dark Words / Черные крылья, черные вести
Серия 3: Walk of Punishment / Стезя страданий
Серия 4: And Now His Watch is Ended / Теперь его дозор окончен
Серия 5: Kissed by Fire / Поцелованная огнем
Серия 6: The Climb / Подъем
Серия 7: The Bear and the Maiden Fair / Медведь и прекрасная дева
Серия 8: Second Sons / Младшие Сыны
Серия 9: The Rains of Castamere / Рейны из Кастамере
Серия 10: Mhysa / Миса
--
Download / Скачать

Хотите скачать бесплатно? Зарегистрируйтесь на сайте (ссылка на регистрацию). Pirat.ca - самый быстрый торрент трекер в рунете!

Как скачивать  ·   Что такое торрент  ·   Рейтинг и ограничения



Последний раз редактировалось: mishanya___ (2013-07-19 17:59), всего редактировалось 28 раз(а)

Пост 10-Апр-2013 16:19 (спустя 15 часов)

Топик был перенесен из форума Зарубежные сериалы (Трюм) в форум Сериалы в эфире

kugesan
 

Hombre250

Морской Волк

Пост 10-Апр-2013 20:25 (спустя 19 часов)

[Q] 

спасибо за HD
[Профиль]  [ЛС] 

most live

Шкипер

Пост 15-Апр-2013 22:50 (спустя 5 дней)

[Q] 

серия расстроила!!!!!!!!!!!
[Профиль]  [ЛС] 

Senidel

Шкипер

Пост 24-Апр-2013 07:07 (спустя 8 дней)

[Q] 

Благодарность за качественную раздачу!
[Профиль]  [ЛС] 

okorm

889

Пост 24-Апр-2013 19:51 (спустя 12 часов)

[Q] 

[Профиль]  [ЛС] 

sergej 1340

Морской Волк

Пост 09-Май-2013 13:34 (спустя 14 дней)

[Q] 

[Профиль]  [ЛС] 

Senidel

Шкипер

Пост 15-Май-2013 00:11 (спустя 5 дней)

[Q] 

Класс!
[Профиль]  [ЛС] 

sanchela9999

Корсар

Пост 20-Май-2013 00:40 (спустя 5 дней)

[Q] 

Оперативно!Душевное спасибо!!!
[Профиль]  [ЛС] 

Gemornax

Морской Волк

Пост 21-Май-2013 08:24 (спустя 1 день 7 часов)

[Q] 

[Профиль]  [ЛС] 

mishanya___ ®

21467

Пост 28-Май-2013 13:33 (спустя 7 дней)

[Q] 

9 серия 3 сезона сериала «Игра престолов» выйдет 3 июня
                                                                                                    (ист. Мекс)
[Профиль]  [ЛС] 

bars22

Лоцман

Пост 31-Май-2013 12:52 (спустя 2 дня 23 часа)

[Q] 

Как перевод народ? Сравнимо с pozakazu?
[Профиль]  [ЛС] 

mishanya___ ®

21467

Пост 03-Июн-2013 21:59 (спустя 3 дня)

[Q] 

Добавлена 9-я серия.
Приятного просмотра
[Профиль]  [ЛС] 

Suman

Шкипер

Пост 04-Июн-2013 00:27 (спустя 2 часа 27 минут)

[Q] 

спасип, будет чем время рабочие убить)
[Профиль]  [ЛС] 

Alex Yz

Гроза морей

Пост 04-Июн-2013 01:11 (спустя 44 минуты)

[Q] 

Спасибо!!!
[Профиль]  [ЛС] 

Hombre250

Морской Волк

Пост 04-Июн-2013 22:40 (спустя 21 час)

[Q] 

[Профиль]  [ЛС] 

mishanya___ ®

21467

Пост 04-Июн-2013 23:38 (спустя 57 минут)

[Q] 

Наслаждайтесь ab
[Профиль]  [ЛС] 

mishanya___ ®

21467

Пост 11-Июн-2013 11:15 (спустя 6 дней)

[Q] 

Добавлена 10-я заключительная серия сезона
[Профиль]  [ЛС] 

Пост 11-Июн-2013 11:25 (спустя 10 минут)

Топик был перенесен из форума Сериалы в эфире в форум Зарубежные сериалы

kugesan
 

Zha-pol

Легенда

Пост 11-Июн-2013 12:22 (спустя 1 час 7 минут)

[Q] 


_________________
[Профиль]  [ЛС] 

mishanya___ ®

21467

Пост 11-Июн-2013 18:42 (спустя 6 часов)

[Q] 

Приятного просмотра...
[Профиль]  [ЛС] 

sanchela9999

Корсар

Пост 11-Июн-2013 20:19 (спустя 1 час 36 минут)

[Q] 

Интересно когда ж терь следующий сезон!?
[Профиль]  [ЛС] 

kugesan

56602

Пост 11-Июн-2013 21:10 (спустя 50 минут)

[Q] 

sanchela9999, Если я не ошибаюсь то в 2014 году... Завтра узнаю по подробнее

_________________

В мире две бесконечности: вселенная и человеческая глупость - Альберт Эйнштен
«Можно вытащить человека из грязи, но нельзя вытащить грязь из человека»!
[Профиль]  [ЛС] 

mishanya___ ®

21467

Пост 11-Июн-2013 22:23 (спустя 1 час 12 минут)

[Q] 

sanchela9999,
В апреле 2014г. ( ист. Wiki )
[Профиль]  [ЛС] 

sergej 1340

Морской Волк

Пост 11-Июн-2013 22:27 (спустя 4 минуты)

[Q] 

спасибо. ждем 4 сезон.
[Профиль]  [ЛС] 

mishanya___ ®

21467

Пост 12-Июн-2013 15:20 (спустя 16 часов)

[Q] 

Ждем конечно...
[Профиль]  [ЛС] 
Показать сообщения:    
Ответить на тему

Текущее время: Сегодня 13:31

Часовой пояс: GMT + 4



Вы не можете начинать темы
Вы не можете отвечать на сообщения
Вы не можете редактировать свои сообщения
Вы не можете удалять свои сообщения
Вы не можете голосовать в опросах
Вы не можете прикреплять файлы к сообщениям
Вы не можете скачивать файлы

▼ Вниз