ML
     
  Уважаемый Гость!
Вы можете поддержать проект и зарегистрироваться у наших партнеров - онлайн-стратегия MyLands. При регистрации в игре Вы получите код, который сможете активировать после регистрации на pirat.ca и получить 1000 дублонов.

Ваш код:
8dcb839cf1b47e56d6dc42d17f26b3e4822e9aee
 
     

Чародей / Spellbinder / Сезон: 1 / Серии: 1-26 из 26 (Ноэль Прайс / Noel Price) [1995 г., приключения, фантастика, семейный, VHSRip] MVO

Ответить на тему
 
Автор
Сообщение

Пост 28-Апр-2013 09:05

[Q] 

kolobok0

Морской Волк

-Чародей / Spellbinder-- Производство: Австралия, Польша
Жанр: приключения, фантастика, семейный
Год выпуска: 1995 г.
Продолжительность: 24:00:00
Мировая премьера: 25 сентября 1995
Перевод: Профессиональный (многоголосый, закадровый)
Режиссер: Ноэль Прайс / Noel Price-В ролях: Збых Трофимюк, Гося Петровска, Брайан Руни, Мишела Нунан, Хезер Митчелл, Рафал Звеж, Эндрю МакФарлэйн, Кжиштоф Кумор,
Анджей Грабарчик, Слава Михалевска-Описание: Группа тинейджеров отправляется в лагерь, чтобы наблюдать солнечное затмение. Учитель показывает им пещеру, в которой по ночам появляются странные вспышки света. Ночью Пол и Алекс пытаются напугать одноклассницу Катрину и её подругу, протянув возле линии электропередач стальной провод, по которому Пол, как призрак, должен спуститься в простыне.
В результате короткого замыкания образовывается портал и Пол случайно попадает в параллельный мир, где правит группа людей, именуемых Чародеями. Чародеи обладают научными знаниями, которые они выдают необразованным крестьянам за волшебство. Чтобы снова попасть домой, Полу придётся доказать что он из другого мира и преодолеть множество трудностей, пройти которые ему поможет Риана — девочка из мира Чародеев.-
Качество видео: VHSRip
Контейнер: AVI
Видео кодек: DivX
Аудио кодек: MP3
Видео: 512х384(4/3), 1539 Kbps, 25,000 кадров/сек
Аудио: 2 ch, 48 KHz, 160 Kbps
Cубтитры: отсутствуют
Полное имя : видео\сериалы\чародей\1 сезон\1 01-04.avi
Формат : AVI
Формат/Информация : Audio Video Interleave
Размер файла : 1,11 Гбайт
Продолжительность : 1 ч. 33 м.
Общий поток : 1699 Кбит/сек
Библиотека кодирования : VirtualDub build 23774/release
Видео
Идентификатор : 0
Формат : MPEG-4 Visual
Параметр BVOP формата : 1
Параметр QPel формата : Нет
Параметр GMC формата : Без точки перехода
Параметр матрицы формата : Default (H.263)
Режим смешивания : Сжатый битовый поток
Идентификатор кодека : DX50
Идентификатор кодека/Подсказка : DivX 5
Продолжительность : 1 ч. 33 м.
Битрейт : 1530 Кбит/сек
Ширина : 512 пикселей
Высота : 384 пикселя
Соотношение сторон : 4:3
Частота кадров : 25,000 кадров/сек
Цветовое пространство : YUV
Субдискретизация насыщенности : 4:2:0
Битовая глубина : 8 бит
Тип развёртки : Прогрессивная
Метод сжатия : С потерями
Бит/(Пиксели*Кадры) : 0.311
Размер потока : 1021 Мбайт (90%)
Библиотека кодирования : DivX 6.4.0 (UTC 2006-10-03)
Аудио
Идентификатор : 1
Формат : MPEG Audio
Версия формата : Version 1
Профиль формата : Layer 3
Режим : Joint stereo
Расширение режима : MS Stereo
Идентификатор кодека : 55
Идентификатор кодека/Подсказка : MP3
Продолжительность : 1 ч. 33 м.
Вид битрейта : Постоянный
Битрейт : 160 Кбит/сек
Каналы : 2 канала
Частота : 48,0 КГц
Метод сжатия : С потерями
Размер потока : 107 Мбайт (9%)
Выравнивание : Разделение по промежуткам
Продолжительность промежутка : 40 мс. (1,00 видеокадр)
Время предзагрузки промежутка : 500 мс.
сериал сгруппирован в блоки по 4 серии
Download / Скачать

Хотите скачать бесплатно? Зарегистрируйтесь на сайте (ссылка на регистрацию). Pirat.ca - самый быстрый торрент трекер в рунете!

Как скачивать  ·   Что такое торрент  ·   Рейтинг и ограничения

Пост 28-Апр-2013 10:33 (спустя 1 час 27 минут)

Топик был перенесен из форума Зарубежные сериалы (Трюм) в форум Зарубежные сериалы

kugesan
 

Walt

Лоцман

Пост 16-Янв-2016 12:50 (спустя 2 года 8 месяцев)

[Q] 

Добрый день! Помогите скачать!!!
[Профиль]  [ЛС] 
Показать сообщения:    
Ответить на тему

Текущее время: Сегодня 04:19

Часовой пояс: GMT + 4



Вы не можете начинать темы
Вы не можете отвечать на сообщения
Вы не можете редактировать свои сообщения
Вы не можете удалять свои сообщения
Вы не можете голосовать в опросах
Вы не можете прикреплять файлы к сообщениям
Вы не можете скачивать файлы

▼ Вниз