ML
     
  Уважаемый Гость!
Вы можете поддержать проект и зарегистрироваться у наших партнеров - онлайн-стратегия MyLands. При регистрации в игре Вы получите код, который сможете активировать после регистрации на pirat.ca и получить 1000 дублонов.

Ваш код:
11f49771fdf057c9d51610e4a0925c3b46ddb655
 
     

Чародей. Страна Великого Дракона. / Spellbinder. Land of the Dragon Lord. / Сезон: 2 / Серии: 1-26 из 26 (Ноэль Прайс / Noel Price) [1997 г., молодежный, приключения, научная фантастика, DVDRip] MVO

Ответить на тему
 
Автор
Сообщение

Пост 01-Май-2013 12:11

[Q] 

kolobok0

Морской Волк

-Чародей. Страна Великого Дракона. / Spellbinder. Land of the Dragon Lord.-- Производство: Австралия, Польша, Китай
Жанр: молодежный, приключения, научная фантастика
Год выпуска: 1997 г.
Продолжительность: 25:00:00
Мировая премьера: 1 сентября 1997
Перевод: Профессиональный (многоголосый, закадровый)
Режиссер: Ноэль Прайс / Noel Price-В ролях: Lauren Hewett, Ryan Kwanten, Leonard Fung, Anthony Wong, Heather Mitchell, Me Yang, Lenore Smith, Peter O'Brien, Hu Xin, Gui Jeilan-Описание: Кэтти Морган, талантливая и одаренная богатым воображением 14-летняя девочка, вместе со своими родителями и 16-летним братом Джошем, проводила летние каникулы, отдыхая на природе вдали от крупных городов и шумных автомагистралей. Однажды, гуляя по окрестностям, Кэтти случайно обнаружила странную бамбуковую лодку, принадлежащую Меку, ученому из Страны Великого Дракона, который открыл способ перемещения между параллельными мирами и прибыл в мир Кэтти на созданном им межпространственном корабле. Кэтти заинтересовалась странной лодкой и случайно изменила положение регуляторов на корабле, переместив себя и Мека в мир Чародеев. Здесь они встретили чародея Ашку, безжалостного и властолюбивого негодяя.
Мек переместил Кэтти и Ашку в Страну Великого Дракона - мир высокоразвитой культуры, в котором царили древние обычаи и традиции, и которым управлял Великий Дракон с помощью Оракула - уникального мощного компьютера, созданного 400 лет назад первым Великим Драконов для защиты и управления страной. Кэтти и Ашка предстали перед Великим Драконом, и, к удивлению Кэтти, им оказался всего лишь 12-летний заносчивый мальчик, обладавший, однако, магическими способностями, осуществляемыми с помощью Оракула. Кэтти понравилась Сану, Великому Дракону, и он отказал ей в просьбе вернуться домой. Кэтти очень волновалась за своих родителей, но она никак не могла знать, что по случайному стечению обстоятельств ее семья также оказались в мире Великого Дракона.
Тем временем Ашка захватила власть в стране, раскрыв секрет главного Оракула, и спустя некоторое время из-за предательства Ашки страна была захвачена варваром Шараком, что после более чем 400 лет спокойного существования повергло страну в хаос. Кэтти и Джош преследовали Ашку в различных параллельных мирах, стараясь освободить из плена своих родителей и спасти Страну Великого Дракона. Они побывали в мире Молоков, где саморазвивающиеся машины ведут войну против людей; в мире, в котором люди бессмертны; в мире, двойнике мира Кэтти, где есть такие же Кэтти, Джош и их родители, но жизнь которых сложилась по-другому...-
Качество видео: DVDRip
Контейнер: AVI
Видео кодек: XviD
Аудио кодек: MP3
Видео: 512x384 (1.33:1), 25 fps, XviD MPEG-4 ~670 kbps avg, 0.14 bit/pixel
Аудио: 48 kHz, MPEG Layer 3, 2 ch, ~192.00 kbps avg
Cубтитры: отсутствуют
Полное имя : видео\сериалы\чародей\2 сезон\Spellbinder.Land.of.the.Dragon.Lord1\Spellbinder.s02e01.(Rus.DSRip).avi
Формат : AVI
Формат/Информация : Audio Video Interleave
Размер файла : 182 Мбайт
Продолжительность : 47 м.
Общий поток : 532 Кбит/сек
Видео
Идентификатор : 0
Формат : MPEG-4 Visual
Профиль формата : Advanced [email protected]
Параметр BVOP формата : 2
Параметр QPel формата : Нет
Параметр GMC формата : Без точки перехода
Параметр матрицы формата : Default (H.263)
Режим смешивания : Сжатый битовый поток
Идентификатор кодека : XVID
Идентификатор кодека/Подсказка : XviD
Продолжительность : 23 м.
Битрейт : 863 Кбит/сек
Ширина : 512 пикселей
Высота : 384 пикселя
Соотношение сторон : 4:3
Частота кадров : 25,000 кадров/сек
Цветовое пространство : YUV
Субдискретизация насыщенности : 4:2:0
Битовая глубина : 8 бит
Тип развёртки : Прогрессивная
Метод сжатия : С потерями
Бит/(Пиксели*Кадры) : 0.175
Размер потока : 148 Мбайт (81%)
Заголовок : AVI-Stream
Библиотека кодирования : XviD 1.2.0.dev47 (UTC 2006-11-01)
Аудио
Идентификатор : 1
Формат : MPEG Audio
Версия формата : Version 1
Профиль формата : Layer 3
Режим : Joint stereo
Идентификатор кодека : 55
Идентификатор кодека/Подсказка : MP3
Продолжительность : 47 м.
Продолжительность оригинала : 23 м.
Вид битрейта : Постоянный
Битрейт : 192 Кбит/сек
Каналы : 2 канала
Частота : 48,0 КГц
Метод сжатия : С потерями
Размер потока : 32,9 Мбайт (18%)
Выравнивание : Соединение по промежуткам
Продолжительность промежутка : 40 мс. (1,00 видеокадр)
Download / Скачать

Хотите скачать бесплатно? Зарегистрируйтесь на сайте (ссылка на регистрацию). Pirat.ca - самый быстрый торрент трекер в рунете!

Как скачивать  ·   Что такое торрент  ·   Рейтинг и ограничения



Последний раз редактировалось: kolobok0 (2013-05-01 13:46), всего редактировалось 1 раз

Пост 01-Май-2013 14:00 (спустя 1 час 48 минут)

Топик был перенесен из форума Зарубежные сериалы (Трюм) в форум Зарубежные сериалы

kugesan
 

pz4

Корсар

79

Пост 01-Май-2013 23:09 (спустя 10 часов)

[Q] 

где то я это видел, не понравилось вроде

_________________
www.pirat.ca
[Профиль]  [ЛС] 

kolobok0 ®

Морской Волк

151

Пост 10-Июн-2013 21:37 (спустя 1 месяц 8 дней)

[Q] 

ну спасибо за отзыв
[Профиль]  [ЛС] 

Walt

Лоцман

Пост 16-Янв-2016 12:56 (спустя 2 года 7 месяцев)

[Q] 

Добрый день! Помогите скачать пожалуйста!!!
[Профиль]  [ЛС] 
Показать сообщения:    
Ответить на тему

Текущее время: Сегодня 03:07

Часовой пояс: GMT + 4



Вы не можете начинать темы
Вы не можете отвечать на сообщения
Вы не можете редактировать свои сообщения
Вы не можете удалять свои сообщения
Вы не можете голосовать в опросах
Вы не можете прикреплять файлы к сообщениям
Вы не можете скачивать файлы

▼ Вниз