ML
     
  Уважаемый Гость!
Вы можете поддержать проект и зарегистрироваться у наших партнеров - онлайн-стратегия MyLands. При регистрации в игре Вы получите код, который сможете активировать после регистрации на pirat.ca и получить 1000 дублонов.

Ваш код:
0ea1bf889af42fca5f67d0a391efb3400850ad7c
 
     

24 часа / 24 (Сезон 1 Серии 1-24 из 24 + Бонус) (Джон Кассар, Брэд Тернер, Брайан Спайсер) [2001 г., Боевик, Триллер, Драма, Криминал, Детектив DVDRip] MVO (1 канал)

Ответить на тему
 
Автор
Сообщение

Пост 03-Май-2013 23:43

[Q] 

UrbanVampire

Корсар

24 часа / 24
Сезон 1 Серии 1-24 из 24
Бонус: Альтернативная концовка и Интервью с Кифером Сазерлендом
Производство: США, FOX
Жанр: Боевик, Триллер, Драма, Криминал, Детектив
Год выпуска: 2001 г.
Продолжительность: ~45 мин. х 24 серии
Мировая премьера: 6 ноября 2001
Российская премьера: 2 июня 2003
Перевод: Профессиональный (многоголосый, закадровый) [1 канал]
Бонус: без перевода
Авторы сериала: Джон Кассар, Брэд Тернер, Брайан Спайсер
В ролях: Кифер Сазерленд, Сара Кларк, Деннис Хэйсберт, Элиша Катберт, Лесли Хоуп, Пенни Джонсон, Карлос Бернард, Сара Уинтер, Ксандер Беркли и др.
Описание: В сутках 24 часа, но для Джека Бауэра — шефа элитного антитеррористического подразделения ЦРУ – этого времени явно недостаточно. Ибо за одни сутки он должен успеть сделать практически невозможное: предотвратить убийство кандидата в президенты Дэвида Палмера, вычислить предателя-информатора в своем отделе и отыскать похищенную дочь-подростка. Последнее обстоятельство грозит крахом и без того шаткого семейного счастья. Что готовят ему следующие 24 часа?
[День 0] [День 1] [День 2] [День 3] [День 4] [День 5] [День 6] [Искупление] [День 7] [День 8]

Качество видео: DVDRip
Контейнер: AVI
Видео кодек: DivX 5.0
Аудио кодек: MP3
Видео: 704×384 DivX 5.0 ~1099 kbps
Аудио: MPEG-1 Layer 3 Stereo ~112 Kbit
General
Complete name : F:\Serials - Сериалы\24\24 s01\24_s01e10.rus.lostfilm.avi
Format : AVI
Format/Info : Audio Video Interleave
File size : 373 MiB
Duration : 42mn 39s
Overall bit rate : 1 223 Kbps
Writing application : Nandub v2.01 The advanced compression technology is developed by Neiromaster
Writing library : Nandub 2.01 modified by Neiromaster
Video
ID : 0
Format : MPEG-4 Visual
Format settings, BVOP : 1
Format settings, QPel : No
Format settings, GMC : No warppoints
Format settings, Matrix : Default (H.263)
Muxing mode : Packed bitstream
Codec ID : DX50
Codec ID/Hint : DivX 5
Duration : 42mn 39s
Bit rate : 1 099 Kbps
Width : 704 pixels
Height : 384 pixels
Display aspect ratio : 1.85:1
Frame rate : 23.976 fps
Color space : YUV
Chroma subsampling : 4:2:0
Bit depth : 8 bits
Scan type : Progressive
Compression mode : Lossy
Bits/(Pixel*Frame) : 0.170
Stream size : 335 MiB (90%)
Writing library : DivX 5.2.1 Alpha (UTC 2004-09-08)
Audio
ID : 1
Format : MPEG Audio
Format version : Version 1
Format profile : Layer 3
Codec ID : 55
Codec ID/Hint : MP3
Duration : 42mn 39s
Bit rate mode : Constant
Bit rate : 112 Kbps
Channel(s) : 1 channel
Sampling rate : 48.0 KHz
Compression mode : Lossy
Stream size : 34.2 MiB (9%)
Alignment : Aligned on interleaves
Interleave, duration : 24 ms (0.58 video frame)
Interleave, preload duration : 192 ms
Writing library : LAME3.97b
Encoding settings : -m m -V 4 -q 3 -lowpass 20.5 -b 112
Совместный релиз и
Download / Скачать

Хотите скачать бесплатно? Зарегистрируйтесь на сайте (ссылка на регистрацию). Pirat.ca - самый быстрый торрент трекер в рунете!

Как скачивать  ·   Что такое торрент  ·   Рейтинг и ограничения

Показать сообщения:    
Ответить на тему

Текущее время: Сегодня 00:39

Часовой пояс: GMT + 4



Вы не можете начинать темы
Вы не можете отвечать на сообщения
Вы не можете редактировать свои сообщения
Вы не можете удалять свои сообщения
Вы не можете голосовать в опросах
Вы не можете прикреплять файлы к сообщениям
Вы не можете скачивать файлы

▼ Вниз