ML
     
  Уважаемый Гость!
Вы можете поддержать проект и зарегистрироваться у наших партнеров - онлайн-стратегия MyLands. При регистрации в игре Вы получите код, который сможете активировать после регистрации на pirat.ca и получить 1000 дублонов.

Ваш код:
8dcb839cf1b47e56d6dc42d17f26b3e4822e9aee
 
     

24 часа / 24 (Сезон 2 Серии: 1-24 из 24) (Джоель Сурноу, Роберт Кокрейн, Джон Кассар) [2002 г., Боевик, Триллер, Драма, Криминал, Детектив, DVDRip] Dub [+ Original (Eng)] (ДТВ)

Ответить на тему
 
Автор
Сообщение

Пост 04-Май-2013 00:05

[Q] 

UrbanVampire

Корсар

24 часа / 24
Сезон 2 Серии 1-24 из 24
Производство: США, FOX
Жанр: Боевик, Триллер, Драма, Криминал, Детектив
Год выпуска: 2002 г.
Продолжительность: ~45 мин. х 24 серии
Перевод: Профессиональный (полное дублирование) [ДТВ]
Оригинальный аудиопоток: английский
Авторы сериала: Джоель Сурноу, Роберт Кокрейн, Джон Кассар
В ролях: Кифер Сазерленд, Сара Кларк, Деннис Хэйсберт, Элиша Катберт, Лесли Хоуп, Пенни Джонсон, Карлос Бернард, Сара Уинтер, Ксандер Беркли
Описание: Действие второго сезона сериала "24" разворачивается через полтора года после событий первого сезона. Джек Бауэр больше не работает в КТП, он подавлен и в депрессии, его дочь Ким избегает встреч с ним. Но когда возникает чрезвычайная ситуация, президент Дэвид Палмер принимает решение вновь ввести Джека в игру. За сутки ему предстоит найти и обезвредить попавшую в руки террористов ядерную бомбу, остановить готовую вот-вот разразиться войну и раскрыть заговор в правительстве.
[День 0] [День 1] [День 2] [День 3] [День 4] [День 5] [День 6] [Искупление] [День 7] [День 8]

Качество видео: DVDRip
Контейнер: AVI
Видео кодек: XviD
Аудио кодек: MP3
Видео: 640×368 (1.74:1), 25 fps, XviD build 9 1026 kbps avg, 0.17 bit/pixel
Аудио RUS: 48 kHz, MPEG Layer 3, 2 ch, ~128.00 kbps avg
Аудио ENG: 48 kHz, MPEG Layer 3, 2 ch, ~128.00 kbps avg
General
Complete name : F:\Serials - Сериалы\24\24 s02\24.s02e01.dvdrip.rus(dtv).eng.novafilm.tv.avi
Format : AVI
Format/Info : Audio Video Interleave
File size : 393 MiB
Duration : 49mn 48s
Overall bit rate mode : Variable
Overall bit rate : 1 105 Kbps
Writing application : VirtualDubMod 1.5.10.2 (build 2542/release)
Writing library : VirtualDubMod build 2542/release
Video
ID : 0
Format : MPEG-4 Visual
Format profile : [email protected]
Format settings, BVOP : No
Format settings, QPel : No
Format settings, GMC : No warppoints
Format settings, Matrix : Default (H.263)
Codec ID : XVID
Codec ID/Hint : XviD
Duration : 49mn 48s
Bit rate : 842 Kbps
Width : 640 pixels
Height : 368 pixels
Display aspect ratio : 1.739
Frame rate : 25.000 fps
Color space : YUV
Chroma subsampling : 4:2:0
Bit depth : 8 bits
Scan type : Progressive
Compression mode : Lossy
Bits/(Pixel*Frame) : 0.143
Stream size : 300 MiB (76%)
Writing library : XviD 0.0.09 (UTC 2003-03-25)
Audio #1
ID : 1
Format : MPEG Audio
Format version : Version 1
Format profile : Layer 3
Mode : Joint stereo
Mode extension : MS Stereo
Codec ID : 55
Codec ID/Hint : MP3
Duration : 49mn 48s
Bit rate mode : Constant
Bit rate : 128 Kbps
Channel(s) : 2 channels
Sampling rate : 48.0 KHz
Compression mode : Lossy
Stream size : 45.6 MiB (12%)
Alignment : Aligned on interleaves
Interleave, duration : 40 ms (1.00 video frame)
Interleave, preload duration : 504 ms
Audio #2
ID : 2
Format : MPEG Audio
Format version : Version 1
Format profile : Layer 3
Mode : Joint stereo
Mode extension : MS Stereo
Codec ID : 55
Codec ID/Hint : MP3
Duration : 49mn 48s
Bit rate mode : Variable
Bit rate : 116 Kbps
Nominal bit rate : 128 Kbps
Channel(s) : 2 channels
Sampling rate : 48.0 KHz
Compression mode : Lossy
Stream size : 41.5 MiB (11%)
Alignment : Aligned on interleaves
Interleave, duration : 24 ms (0.60 video frame)
Interleave, preload duration : 504 ms
Writing library : LAME3.92
Encoding settings : -m j -V 0 -q 2 -lowpass 15.3 --abr 128
Download / Скачать

Хотите скачать бесплатно? Зарегистрируйтесь на сайте (ссылка на регистрацию). Pirat.ca - самый быстрый торрент трекер в рунете!

Как скачивать  ·   Что такое торрент  ·   Рейтинг и ограничения

Показать сообщения:    
Ответить на тему

Текущее время: Сегодня 04:15

Часовой пояс: GMT + 4



Вы не можете начинать темы
Вы не можете отвечать на сообщения
Вы не можете редактировать свои сообщения
Вы не можете удалять свои сообщения
Вы не можете голосовать в опросах
Вы не можете прикреплять файлы к сообщениям
Вы не можете скачивать файлы

▼ Вниз