ML
     
  Уважаемый Гость!
Вы можете поддержать проект и зарегистрироваться у наших партнеров - онлайн-стратегия MyLands. При регистрации в игре Вы получите код, который сможете активировать после регистрации на pirat.ca и получить 1000 дублонов.

Ваш код:
5af7de75d3db09b6a37bc8bab71b0e87ccde73d6
 
     

24 часа / 24 (Сезон 3 Серии 1-24 из 24) (Джоель Сурноу, Роберт Кокрейн, Джон Кассар) [2003 г., Боевик, Триллер, Драма, Криминал, Детектив, DVDRip] Dub [+ Original (Eng)] (ДТВ)

Ответить на тему
 
Автор
Сообщение

Пост 04-Май-2013 00:30

[Q] 

UrbanVampire

Корсар

24 часа / 24
Сезон 3 Серии 1-24 из 24
Производство: США, FOX
Жанр: Боевик, Триллер, Драма, Криминал, Детектив
Год выпуска: 2003 г.
Продолжительность: ~45 мин. х 24 серии
Перевод: Профессиональный (полное дублирование)
Оригинальный аудиопоток: английский
Создатели сериала: Джоель Сурноу, Роберт Кокрейн, Джон Кассар
В ролях: Кифер Сазерленд, Сара Кларк, Деннис Хэйсберт, Элиша Катберт, Лесли Хоуп, Пенни Джонсон, Карлос Бернард, Сара Уинтер, Ксандер Беркли
Описание: На этот раз террор принимает биологический характер. Прошло три года с того момента, когда агент CTU Джек Бауер предотвратил попытку террористов втянуть США в войну. Теперь он снова вернулся в Лос-Анджелес после шести месяцев работы под прикрытием, позволившей разоблачить наркобарона Рамона Салзаара. В ФБР поступает звонок от террориста, угрожающим заразить Лос-Анджелес смертоносным вирусом, если Салзаара не выпустят из тюрьмы в течение шести часов. Пока CTU ищет вирус, Джек понимает, что единственный способ предотвратить угрозу - найти сам источник вируса, помогая бежать Салзаару из тюрьмы.
[День 0] [День 1] [День 2] [День 3] [День 4] [День 5] [День 6] [Искупление] [День 7] [День 8]

Качество видео: DVDRip
Контейнер: AVI
Видео кодек: XviD
Аудио кодек: MP3
Видео: 576×320 (1.80:1), 25 fps, XviD Final 1.0.1 (build 35) 848 kbps avg, 0.17 bit/pixel
Аудио RUS: 48 kHz, MPEG Layer 3, 2 ch, ~128.00 kbps avg
Аудио ENG: 48 kHz, MPEG Layer 3, 2 ch, ~128.00 kbps avg
General
Complete name : F:\Serials - Сериалы\24\24 s03\24.s03e02.dvdrip.rus(dtv).eng.novafilm.tv.avi
Format : AVI
Format/Info : Audio Video Interleave
File size : 392 MiB
Duration : 42mn 19s
Overall bit rate mode : Variable
Overall bit rate : 1 294 Kbps
Writing application : VirtualDubMod 1.5.10.2 (build 2542/release)
Writing library : VirtualDubMod build 2542/release
Video
ID : 0
Format : MPEG-4 Visual
Format profile : Advanced [email protected]
Format settings, BVOP : No
Format settings, QPel : No
Format settings, GMC : No warppoints
Format settings, Matrix : Default (H.263)
Codec ID : XVID
Codec ID/Hint : XviD
Duration : 42mn 19s
Bit rate : 1 019 Kbps
Width : 576 pixels
Height : 320 pixels
Display aspect ratio : 16:9
Frame rate : 25.000 fps
Color space : YUV
Chroma subsampling : 4:2:0
Bit depth : 8 bits
Scan type : Progressive
Compression mode : Lossy
Bits/(Pixel*Frame) : 0.221
Stream size : 309 MiB (79%)
Writing library : XviD 1.0.1 (UTC 2004-06-05)
Audio #1
ID : 1
Format : MPEG Audio
Format version : Version 1
Format profile : Layer 3
Mode : Joint stereo
Mode extension : MS Stereo
Codec ID : 55
Codec ID/Hint : MP3
Duration : 42mn 19s
Bit rate mode : Constant
Bit rate : 128 Kbps
Channel(s) : 2 channels
Sampling rate : 48.0 KHz
Compression mode : Lossy
Stream size : 38.7 MiB (10%)
Alignment : Aligned on interleaves
Interleave, duration : 40 ms (1.00 video frame)
Interleave, preload duration : 504 ms
Audio #2
ID : 2
Format : MPEG Audio
Format version : Version 1
Format profile : Layer 3
Mode : Joint stereo
Mode extension : MS Stereo
Codec ID : 55
Codec ID/Hint : MP3
Duration : 42mn 19s
Bit rate mode : Variable
Bit rate : 128 Kbps
Channel(s) : 2 channels
Sampling rate : 48.0 KHz
Compression mode : Lossy
Stream size : 38.9 MiB (10%)
Alignment : Aligned on interleaves
Interleave, duration : 24 ms (0.60 video frame)
Interleave, preload duration : 143 ms
Writing library : LAME3.93a
Encoding settings : -m j -V 4 -q 2 -lowpass 17.5 --abr 128
Download / Скачать

Хотите скачать бесплатно? Зарегистрируйтесь на сайте (ссылка на регистрацию). Pirat.ca - самый быстрый торрент трекер в рунете!

Как скачивать  ·   Что такое торрент  ·   Рейтинг и ограничения

Показать сообщения:    
Ответить на тему

Текущее время: Сегодня 14:12

Часовой пояс: GMT + 4



Вы не можете начинать темы
Вы не можете отвечать на сообщения
Вы не можете редактировать свои сообщения
Вы не можете удалять свои сообщения
Вы не можете голосовать в опросах
Вы не можете прикреплять файлы к сообщениям
Вы не можете скачивать файлы

▼ Вниз