ML
     
  Уважаемый Гость!
Вы можете поддержать проект и зарегистрироваться у наших партнеров - онлайн-стратегия MyLands. При регистрации в игре Вы получите код, который сможете активировать после регистрации на pirat.ca и получить 1000 дублонов.

Ваш код:
cc3be08b7507661c03e0a2f582d0da3a659ea55a
 
     

24 часа / 24 (Сезон 4 Серии 1-24 из 24 + Бонус) (Роберт Кокрейн, Джоэль Сурноу, Джон Кассар) [2005 г., Боевик, Триллер, Драма, Криминал, Детектив, DVDRip] Dub [+ Original (Eng)] (ДТВ)

Ответить на тему
 
Автор
Сообщение

Пост 04-Май-2013 01:05

[Q] 

UrbanVampire

Корсар

24 часа / 24
Сезон 4 Серии 1-24 из 24
Бонус: Приквел (7 минут)
Производство: США, FOX
Жанр: Боевик, Триллер, Драма, Криминал, Детектив
Год выпуска: 2005 г.
Продолжительность: ~45 мин. х 24 серии
Перевод: Профессиональный (полное дублирование) [ДТВ]
Перевод приквела: Одноголосый любительский закадровый [1001 cinema]
Оригинальный аудиопоток: английский
Авторы сериала: Роберт Кокрейн, Джоэль Сурноу, Джон Кассар
В ролях: Кифер Сазерленд (Jack Bauer), Мэри Линн Райскаб (Chloe O'Brian), Уильям Девэйн (James Heller), Карлос Бернард (Tony Almeida), Элиша Катберт (Kim Bauer), Альберта Уотсон (Erin Driscoll), Роджер Р. Кросс (Curtis Manning), Арнольд Вослу (Habib Marwan) и др.
Описание: Еще один захватывающий день из жизни супер-агента Джека Бауера. Сезон начинается со смертоносной террористической атаки и похищения Министра Обороны Джеймса Хэллэра. И хотя Бауер уволен из КТП, ничего удивительного в том, что именно он окажется тем, кто начнет борьбу с террористами, нет. И у него не займет много времени выяснить, что похищение его босса это часть большого плана, разработанного Хабибом Марваном, лидером ближне-восточной террористической ячейки, с которой правительство Соединенных Штатов борется уже много лет.
Признанный многими одним их лучших сезонов, 4 сезон сериала 24 сильно отличается от предыдущих трех. Во-первых, обновленный актерский состав. Во-вторых, скорость каждого эпизода уже не такая безумная. Теперь акцент делается не на то, чтобы каждая серия заканчивалась на самом интересном месте, а на сложные, разветвленные сюжетные линии. По сравнению с предыдущими сезонами, сериал 24 стал намного изящнее и умнее, и следовательно, еще лучше.
[День 0] [День 1] [День 2] [День 3] [День 4] [День 5] [День 6] [Искупление] [День 7] [День 8]

Качество видео: DVDRip
Контейнер: AVI
Видео кодек: XviD
Аудио кодек: MP3
Видео: 640×352 (1.82:1), 25 fps, XviD MPEG-4 1008 kbps avg, 0.18 bit/pixel
Аудио RUS: 48 kHz, MPEG Layer 3, 2 ch, ~128.00 kbps avg
Аудио ENG: 48 kHz, MPEG Layer 3, 2 ch, ~128.00 kbps avg
General
Complete name : F:\Serials - Сериалы\24\24 s03\24.s03e05.dvdrip.rus(dtv).eng.novafilm.tv.avi
Format : AVI
Format/Info : Audio Video Interleave
File size : 391 MiB
Duration : 42mn 11s
Overall bit rate mode : Variable
Overall bit rate : 1 297 Kbps
Writing application : VirtualDubMod 1.5.10.2 (build 2542/release)
Writing library : VirtualDubMod build 2542/release
Video
ID : 0
Format : MPEG-4 Visual
Format profile : Advanced [email protected]
Format settings, BVOP : No
Format settings, QPel : No
Format settings, GMC : No warppoints
Format settings, Matrix : Default (H.263)
Codec ID : XVID
Codec ID/Hint : XviD
Duration : 42mn 11s
Bit rate : 1 024 Kbps
Width : 576 pixels
Height : 320 pixels
Display aspect ratio : 16:9
Frame rate : 25.000 fps
Color space : YUV
Chroma subsampling : 4:2:0
Bit depth : 8 bits
Scan type : Progressive
Compression mode : Lossy
Bits/(Pixel*Frame) : 0.222
Stream size : 309 MiB (79%)
Writing library : XviD 1.0.1 (UTC 2004-06-05)
Audio #1
ID : 1
Format : MPEG Audio
Format version : Version 1
Format profile : Layer 3
Mode : Joint stereo
Mode extension : MS Stereo
Codec ID : 55
Codec ID/Hint : MP3
Duration : 42mn 11s
Bit rate mode : Constant
Bit rate : 128 Kbps
Channel(s) : 2 channels
Sampling rate : 48.0 KHz
Compression mode : Lossy
Stream size : 38.6 MiB (10%)
Alignment : Aligned on interleaves
Interleave, duration : 40 ms (1.00 video frame)
Interleave, preload duration : 504 ms
Audio #2
ID : 2
Format : MPEG Audio
Format version : Version 1
Format profile : Layer 3
Mode : Joint stereo
Mode extension : MS Stereo
Codec ID : 55
Codec ID/Hint : MP3
Duration : 42mn 11s
Bit rate mode : Variable
Bit rate : 128 Kbps
Channel(s) : 2 channels
Sampling rate : 48.0 KHz
Compression mode : Lossy
Stream size : 38.5 MiB (10%)
Alignment : Aligned on interleaves
Interleave, duration : 24 ms (0.60 video frame)
Interleave, preload duration : 484 ms
Writing library : LAME3.93a
Encoding settings : -m j -V 4 -q 2 -lowpass 17.5 --abr 128
Download / Скачать

Хотите скачать бесплатно? Зарегистрируйтесь на сайте (ссылка на регистрацию). Pirat.ca - самый быстрый торрент трекер в рунете!

Как скачивать  ·   Что такое торрент  ·   Рейтинг и ограничения

Показать сообщения:    
Ответить на тему

Текущее время: Сегодня 05:08

Часовой пояс: GMT + 4



Вы не можете начинать темы
Вы не можете отвечать на сообщения
Вы не можете редактировать свои сообщения
Вы не можете удалять свои сообщения
Вы не можете голосовать в опросах
Вы не можете прикреплять файлы к сообщениям
Вы не можете скачивать файлы

▼ Вниз