ML
     
  Уважаемый Гость!
Вы можете поддержать проект и зарегистрироваться у наших партнеров - онлайн-стратегия MyLands. При регистрации в игре Вы получите код, который сможете активировать после регистрации на pirat.ca и получить 1000 дублонов.

Ваш код:
fe4e93b754a7c2b306fcfc8bc32532ea1cf59d3b
 
     

24 часа / 24 (Сезон 5 Серии: 1-24 из 24 + Бонус) (Роберт Кокрейн, Джоэль Сурноу, Джон Кассар) [2006 г., Боевик, Триллер, Драма, Криминал, Детектив, DVDRip] AVO [+ Original (Eng)] (Сергей Визгунов)

Ответить на тему
 
Автор
Сообщение

Пост 04-Май-2013 01:35

[Q] 

UrbanVampire

Корсар

24 часа / 24
Сезон 5 Серии 1-24 из 24
Бонус: Приквел (11 минут, спонсировано Toyota)
Производство: США, FOX
Жанр: Боевик, Триллер, Драма, Криминал, Детектив
Год выпуска: 2006 г.
Продолжительность: ~45 мин. х 24 серии
Перевод: Авторский (одноголосый, закадровый) [Сергей Визгунов]
Перевод приквела: Одноголосый любительский закадровый [1001 cinema]
Оригинальный аудиопоток: английский
Режиссер: Роберт Кокрейн, Джоэль Сурноу, Джон Кассар
В ролях: Кифер Сазерленд, Мэри Линн Райскаб, Карлос Бернард, Элиша Катберт, Деннис Хейсбёрт, Джеймс Моррисон, Рейко Эйлсворт, Джуд Чикколелла, Ким Рэйвер, Гленн Моршауэр
Описание: Спустя полтора года после событий четвертого сезона, Джек Бауэр под псевдонимом "Фрэнк Флинн" работает на нефтеперегонном заводе в Мохаве, штат Калифорния. Джек снимает комнату в северном предместье Лос-Анджелеса у матери-одиночки Дианы Хаксли и ее 15-летнего сына Дерека. Президент США Логан должен подписать договор об антитеррористическом сотрудничестве с русским президентом Юрием Суворовым. Однако, темные силы не дремлют: на США вновь нападают террористы, на этот раз — чеченские боевики под предводительством Владимира Бирко. Возможно ли, что действия террористов — часть заговора на государственном уровне? Как Джек Бауэр справится с новым кризисом?
[День 0] [День 1] [День 2] [День 3] [День 4] [День 5] [День 6] [Искупление] [День 7] [День 8]

Качество видео: DVDRip
Контейнер: AVI
Видео кодек: XviD
Аудио кодек: MP3
Видео: Xvid 608x336 23.976fps ~957kbps ~0.195
Аудио RUS: MP3 48000Hz stereo 128kbps
Аудио ENG: MP3 48000Hz stereo 128kbps
General
Complete name : F:\Serials - Сериалы\24\24 s05\24.s05e05.dvdrip.rus.eng.novafilm.tv&torrents.ru.avi
Format : AVI
Format/Info : Audio Video Interleave
File size : 373 MiB
Duration : 44mn 3s
Overall bit rate : 1 182 Kbps
Writing application : VirtualDubMod 1.5.10.2 (build 2542/release)
Writing library : VirtualDubMod build 2542/release
Video
ID : 0
Format : MPEG-4 Visual
Format profile : Advanced [email protected]
Format settings, BVOP : 2
Format settings, QPel : No
Format settings, GMC : No warppoints
Format settings, Matrix : Default (H.263)
Muxing mode : Packed bitstream
Codec ID : XVID
Codec ID/Hint : XviD
Duration : 44mn 3s
Bit rate : 912 Kbps
Width : 608 pixels
Height : 336 pixels
Display aspect ratio : 16:9
Frame rate : 23.976 fps
Color space : YUV
Chroma subsampling : 4:2:0
Bit depth : 8 bits
Scan type : Progressive
Compression mode : Lossy
Bits/(Pixel*Frame) : 0.186
Stream size : 287 MiB (77%)
Writing library : XviD 1.1.2 (UTC 2006-11-01)
Audio #1
ID : 1
Format : MPEG Audio
Format version : Version 1
Format profile : Layer 3
Mode : Joint stereo
Mode extension : MS Stereo
Codec ID : 55
Codec ID/Hint : MP3
Duration : 44mn 3s
Bit rate mode : Constant
Bit rate : 128 Kbps
Channel(s) : 2 channels
Sampling rate : 48.0 KHz
Compression mode : Lossy
Stream size : 40.3 MiB (11%)
Alignment : Aligned on interleaves
Interleave, duration : 42 ms (1.00 video frame)
Interleave, preload duration : 504 ms
Audio #2
ID : 2
Format : MPEG Audio
Format version : Version 1
Format profile : Layer 3
Mode : Joint stereo
Mode extension : MS Stereo
Codec ID : 55
Codec ID/Hint : MP3
Duration : 44mn 3s
Bit rate mode : Constant
Bit rate : 128 Kbps
Channel(s) : 2 channels
Sampling rate : 48.0 KHz
Compression mode : Lossy
Stream size : 40.3 MiB (11%)
Alignment : Aligned on interleaves
Interleave, duration : 42 ms (1.00 video frame)
Interleave, preload duration : 504 ms
Совместный релиз при финансовой поддержке пользователей
Download / Скачать

Хотите скачать бесплатно? Зарегистрируйтесь на сайте (ссылка на регистрацию). Pirat.ca - самый быстрый торрент трекер в рунете!

Как скачивать  ·   Что такое торрент  ·   Рейтинг и ограничения

Показать сообщения:    
Ответить на тему

Текущее время: Сегодня 14:29

Часовой пояс: GMT + 4



Вы не можете начинать темы
Вы не можете отвечать на сообщения
Вы не можете редактировать свои сообщения
Вы не можете удалять свои сообщения
Вы не можете голосовать в опросах
Вы не можете прикреплять файлы к сообщениям
Вы не можете скачивать файлы

▼ Вниз