ML
     
  Уважаемый Гость!
Вы можете поддержать проект и зарегистрироваться у наших партнеров - онлайн-стратегия MyLands. При регистрации в игре Вы получите код, который сможете активировать после регистрации на pirat.ca и получить 1000 дублонов.

Ваш код:
ea554e7ed3eacceeae87a8b30a9de3f086c18a84
 
     

24 часа / 24 (Сезон 6 Серии 1-24 из 24 + Бонус) (Джон Кассар, Брэд Тернер, Брайан Спайсер) [2007 г., Боевик, Триллер, Драма, Криминал, Детектив, DVDRip] DVO (1001 FiXED)

Ответить на тему
 
Автор
Сообщение

Пост 04-Май-2013 01:58

[Q] 

UrbanVampire

Корсар

24 часа / 24
Сезон 6 Серии 1-24 из 24
Бонус: Приквел (спонсировано Toyota), Пост-брифинг
Производство: США, FOX
Жанр: Боевик, Триллер, Драма, Криминал, Детектив
Год выпуска: 2007 г.
Продолжительность: ~45 мин. х 24 серии
Перевод сериала и пост-брифинга: Любительский (двухголосый, закадровый) [1001 cinema]
Перевод приквела: Одноголосый любительский закадровый [NovaFiLM]
Авторы сериала: Джон Кассар, Брэд Тернер, Брайан Спайсер
В ролях: Кифер Сазерленд, Мэри Линн Рэйскоуб, Ди Би Вудсайд, Пауэрс Бут, Питер МакНикол и др.
Описание: Серия кровопролитных терактов прогремела по всей Америке. У Агенства внутренней безопасности и КТП есть лишь одна ниточка, ведущая к лидеру исламских боевиков, предположительно, стоящему за волной террора. Один из сообщников согласен сдать его местонахождение, но одно из условий — выдача Джека Бауэра.
Доп. информация: Общепризнанно лучшим переводом этого сезона считается перевод от 1001 cimema. Однако, в широко распространенной версии присутствует баг в 16 серии. В этом релизе содержится исправленная версия перевода.
[День 0] [День 1] [День 2] [День 3] [День 4] [День 5] [День 6] [Искупление] [День 7] [День 8]

Качество видео: DVDRip
Контейнер: AVI
Видео кодек: XviD
Аудио кодек: MP3
Видео: Xvid 608x352 23.976fps ~987kbps ~0.192
Аудио: MP3 48000Hz stereo 128kbps
General
Complete name : F:\Serials - Сериалы\24\24 s06\24.s06e01.rus.1001cinema_ru.avi
Format : AVI
Format/Info : Audio Video Interleave
File size : 349 MiB
Duration : 42mn 25s
Overall bit rate : 1 151 Kbps
Writing application : VirtualDubModRus 1.5.10.2 (build 2540/release)
Writing library : VirtualDubMod build 2540/release
Video
ID : 0
Format : MPEG-4 Visual
Format profile : Advanced [email protected]
Format settings, BVOP : No
Format settings, QPel : No
Format settings, GMC : No warppoints
Format settings, Matrix : Custom
Codec ID : XVID
Codec ID/Hint : XviD
Duration : 42mn 25s
Bit rate : 1 014 Kbps
Width : 608 pixels
Height : 352 pixels
Display aspect ratio : 3:2
Original display aspect ratio : 1.727
Frame rate : 23.976 fps
Color space : YUV
Chroma subsampling : 4:2:0
Bit depth : 8 bits
Scan type : Progressive
Compression mode : Lossy
Bits/(Pixel*Frame) : 0.198
Stream size : 308 MiB (88%)
Writing library : XviD 1.2.0.dev47 (UTC 2006-11-01)
Audio
ID : 1
Format : MPEG Audio
Format version : Version 1
Format profile : Layer 3
Mode : Joint stereo
Mode extension : MS Stereo
Codec ID : 55
Codec ID/Hint : MP3
Duration : 42mn 25s
Bit rate mode : Constant
Bit rate : 128 Kbps
Channel(s) : 2 channels
Sampling rate : 48.0 KHz
Compression mode : Lossy
Stream size : 38.8 MiB (11%)
Alignment : Aligned on interleaves
Interleave, duration : 42 ms (1.00 video frame)
Interleave, preload duration : 504 ms
Download / Скачать

Хотите скачать бесплатно? Зарегистрируйтесь на сайте (ссылка на регистрацию). Pirat.ca - самый быстрый торрент трекер в рунете!

Как скачивать  ·   Что такое торрент  ·   Рейтинг и ограничения

Показать сообщения:    
Ответить на тему

Текущее время: Сегодня 12:12

Часовой пояс: GMT + 4



Вы не можете начинать темы
Вы не можете отвечать на сообщения
Вы не можете редактировать свои сообщения
Вы не можете удалять свои сообщения
Вы не можете голосовать в опросах
Вы не можете прикреплять файлы к сообщениям
Вы не можете скачивать файлы

▼ Вниз