ML
     
  Уважаемый Гость!
Вы можете поддержать проект и зарегистрироваться у наших партнеров - онлайн-стратегия MyLands. При регистрации в игре Вы получите код, который сможете активировать после регистрации на pirat.ca и получить 1000 дублонов.

Ваш код:
e6008d9811a0b6a1393c3dc51ecd7bc35637bc21
 
     

24 часа / 24 (Сезон 8 Серии 1-24 из 24) (Джон Кассар, Брэд Тернер, Брайан Спайсер) [2010 г., Боевик, Триллер, Драма, Криминал, Детектив, WEB-DL] MVO (NovaFiLM)

Ответить на тему
 
Автор
Сообщение

Пост 04-Май-2013 02:22

[Q] 

UrbanVampire

Корсар

24 часа / 24
Сезон 8 Серии 1-24 из 24
Производство: США, FOX
Жанр: Боевик, Триллер, Драма, Криминал, Детектив
Год выпуска: 2010 г.
Продолжительность: ~45 мин. х 24 серии
Перевод: Профессиональный (многоголосый, закадровый) [NovaFiLM]
Авторы сериала: Джон Кассар, Брэд Тернер, Брайан Спайсер
В ролях: Кифер Сазерленд (Jack Bauer), Мэри Линн Райскаб (Chloe O'Brian), Черри Джонс (President Allison Taylor), Анил Капур (Omar Hassan), Анни Вершинг (Renee Walker), Кэти Сэкхоф (Dana Walsh), Микелти Уильямсон (Brian Hastings), Фредди Принц Мл. (Cole Ortiz), Крис Диамантополос (Rob Weiss), Джон Бойд (Arlo Glass) и др.
Описание: Неизвестно, сколько времени прошло после событий седьмого дня. Восьмой день начинается в 16 часов. Действие происходит в Нью-Йорке. Вылечившийся Джек собирается улететь в Лос-Анджелес вместе со своей дочерью Ким, её мужем и дочкой Тери. Однако в его дверь стучится бывший информатор, у которого есть сведения об очередном готовящемся грандиозном теракте...
[День 0] [День 1] [День 2] [День 3] [День 4] [День 5] [День 6] [Искупление] [День 7] [День 8]

Качество видео: WEB-DL Rip
Контейнер: AVI
Видео кодек: DivX
Аудио кодек: MP3
Видео: 624×352 (1.77:1), 23.976 fps, DivX Codec 6.8.3 ~1006 kbps avg, 0.19 bit/pixel
Аудио: 48 kHz, MPEG Layer 3, 2 ch, ~128.00 kbps avg
General
Complete name : F:\Serials - Сериалы\24\24 s08\24.s08e01.webdl.rus.novafilm.tv.avi
Format : AVI
Format/Info : Audio Video Interleave
File size : 350 MiB
Duration : 42mn 47s
Overall bit rate : 1 144 Kbps
Writing application : VirtualDubMod 1.5.10.2 (build 2542/release)
Writing library : VirtualDubMod build 2542/release
Video
ID : 0
Format : MPEG-4 Visual
Format settings, BVOP : 1
Format settings, QPel : No
Format settings, GMC : No warppoints
Format settings, Matrix : Default (H.263)
Muxing mode : Packed bitstream
Codec ID : DX50
Codec ID/Hint : DivX 5
Duration : 42mn 47s
Bit rate : 1 006 Kbps
Width : 624 pixels
Height : 352 pixels
Display aspect ratio : 16:9
Original display aspect ratio : 16:9
Frame rate : 23.976 fps
Color space : YUV
Chroma subsampling : 4:2:0
Bit depth : 8 bits
Scan type : Progressive
Compression mode : Lossy
Bits/(Pixel*Frame) : 0.191
Stream size : 308 MiB (88%)
Writing library : DivX 6.8.3-6.8.4 (UTC 2008-06-07)
Audio
ID : 1
Format : MPEG Audio
Format version : Version 1
Format profile : Layer 3
Mode : Joint stereo
Codec ID : 55
Codec ID/Hint : MP3
Duration : 42mn 47s
Bit rate mode : Constant
Bit rate : 128 Kbps
Channel(s) : 2 channels
Sampling rate : 48.0 KHz
Compression mode : Lossy
Stream size : 39.2 MiB (11%)
Alignment : Aligned on interleaves
Interleave, duration : 42 ms (1.00 video frame)
Interleave, preload duration : 504 ms
Download / Скачать

Хотите скачать бесплатно? Зарегистрируйтесь на сайте (ссылка на регистрацию). Pirat.ca - самый быстрый торрент трекер в рунете!

Как скачивать  ·   Что такое торрент  ·   Рейтинг и ограничения

Показать сообщения:    
Ответить на тему

Текущее время: Сегодня 01:59

Часовой пояс: GMT + 4



Вы не можете начинать темы
Вы не можете отвечать на сообщения
Вы не можете редактировать свои сообщения
Вы не можете удалять свои сообщения
Вы не можете голосовать в опросах
Вы не можете прикреплять файлы к сообщениям
Вы не можете скачивать файлы

▼ Вниз