ML
     
  Уважаемый Гость!
Вы можете поддержать проект и зарегистрироваться у наших партнеров - онлайн-стратегия MyLands. При регистрации в игре Вы получите код, который сможете активировать после регистрации на pirat.ca и получить 1000 дублонов.

Ваш код:
5af7de75d3db09b6a37bc8bab71b0e87ccde73d6
 
     

Голод / The Hunger (Сезон 1-2 Серии 1-44 из 44) (Тони и Ридли Скотт / Tony and Ridley Scott) [1997 г., Ужасы, мистика, DVDRip] MVO (Селена-Интернешнл)

Ответить на тему
 
Автор
Сообщение

Пост 04-Май-2013 17:18

[Q] 

UrbanVampire

Корсар

Голод / The Hunger
Сезон 1-2, Серии 1-44 из 44х
Производство: США, Канада, Великобритания
Жанр: Ужасы, мистика
Год выпуска: 1997 г.
Продолжительность: ~ 29 минут х 44 серии.
Перевод: Профессиональный (многоголосый, закадровый) [Селена-Интернешнл]
Режиссер: Тони и Ридли Скотт / Tony and Ridley Scott
В ролях: Теренс Стэмп, Дэвид Боуи, Ричард Джутрас, Дон Джордан, Карен Элкин, Клаудия Бессо, Дэниэл Крэйг, Джейсон Флеминг, Лена Хиди, Эрик Робертс и др.
Описание: Если вы хотите видеть на экране секс, смотрите что — нибудь другое. Если вы поклонник фильмов о сверхъестественном, посмотрите "Секретные материалы". Любите фильмы о преступлениях? Пусть вас снова взволнует "Коломбо". Даже не тратьте свое время на "Голод". До тех пор, пока не захотите увидеть настоящее искусство...
Сериал "Голод" создали по мотивам своего одноименного фильма Тони и Ридли Скотт. Это удивительное, завораживающее повествование о любви и сексе, предательствеи смерти, тайных страстях и глубоких чувствах, разрушающих тело и душу. Новая захватывающая антология всего запретного и странного снята по мотивам избранных произведений лучших писателей прошлого и современности — Эдгара Алана По, Роберта Блоха ("Психо"), Брайана Ламли (автора всемирно известных бестселлеров из серии "Некроскоп") и создателя "Рэмбо" Дэвида Моррела.
Голод. Жажда власти. Жажда секса. Жажда жизни. Долголетия. Жажда денег. Жажда крови. Голод.
ВНИМАНИЕ! Сериал содержит сцены насилия и сцены с обнаженной натурой.
Качество видео: DVDRip
Контейнер: AVI
Видео кодек: DivX
Аудио кодек: MP3
Видео: 704x528 (1.33:1), 25 fps, DivX Codec 6.8.5 ~1600 kbps avg, 0.17 bit/pixel
Аудио: 48 kHz, MPEG Layer 3, 2 ch, ~128.00 kbps avg
Cубтитры: отсутствуют
General
Complete name : F:\Serials - Сериалы\Hunger - Голод\Hunger s01e01 - The Swords.avi
Format : AVI
Format/Info : Audio Video Interleave
File size : 350 MiB
Duration : 28mn 11s
Overall bit rate : 1 738 Kbps
Movie name : Hunger s01e01 - The Swords
Copyright : для портала www.uralmix.ru
Video
ID : 0
Format : MPEG-4 Visual
Format settings, BVOP : 1
Format settings, QPel : No
Format settings, GMC : No warppoints
Format settings, Matrix : Default (H.263)
Muxing mode : Packed bitstream
Codec ID : DX50
Codec ID/Hint : DivX 5
Duration : 28mn 11s
Bit rate : 1 600 Kbps
Width : 704 pixels
Height : 528 pixels
Display aspect ratio : 4:3
Frame rate : 25.000 fps
Color space : YUV
Chroma subsampling : 4:2:0
Bit depth : 8 bits
Scan type : Progressive
Compression mode : Lossy
Bits/(Pixel*Frame) : 0.172
Stream size : 323 MiB (92%)
Writing library : DivX 6.8.5 (UTC 2009-08-20)
Audio
ID : 1
Format : MPEG Audio
Format version : Version 1
Format profile : Layer 3
Mode : Joint stereo
Mode extension : MS Stereo
Codec ID : 55
Codec ID/Hint : MP3
Duration : 28mn 11s
Bit rate mode : Constant
Bit rate : 128 Kbps
Channel(s) : 2 channels
Sampling rate : 48.0 KHz
Compression mode : Lossy
Stream size : 25.8 MiB (7%)
Alignment : Aligned on interleaves
Interleave, duration : 40 ms (1.00 video frame)
Interleave, preload duration : 504 ms
Writing library : LAME3.97
Encoding settings : -m j -V 4 -q 2 -lowpass 17 -b 128
Language : Не определен
Download / Скачать

Хотите скачать бесплатно? Зарегистрируйтесь на сайте (ссылка на регистрацию). Pirat.ca - самый быстрый торрент трекер в рунете!

Как скачивать  ·   Что такое торрент  ·   Рейтинг и ограничения



Последний раз редактировалось: UrbanVampire (2013-05-05 04:42), всего редактировалось 1 раз

Принц Датский

Корсар

Пост 04-Май-2013 18:41 (спустя 1 час 23 минуты)

[Q] 


ностальгия...круто, UrbanVampire , aa aa aa

_________________
[Профиль]  [ЛС] 

UrbanVampire ®

Корсар

1077

Пост 04-Май-2013 19:20 (спустя 38 минут)

[Q] 

Принц Датский, да, такого больше не снимают...
[Профиль]  [ЛС] 

Пост 05-Май-2013 10:30 (спустя 15 часов)

Топик был перенесен из форума Зарубежные сериалы (Трюм) в форум Зарубежные сериалы

kugesan
 

vovan200976

Флибустьер

Пост 10-Сен-2014 10:03 (спустя 1 год 4 месяца)

[Q] 

Спасибо , как раз 2 сезон искал !!! Лови бочку
[Профиль]  [ЛС] 
Показать сообщения:    
Ответить на тему

Текущее время: Сегодня 14:14

Часовой пояс: GMT + 4



Вы не можете начинать темы
Вы не можете отвечать на сообщения
Вы не можете редактировать свои сообщения
Вы не можете удалять свои сообщения
Вы не можете голосовать в опросах
Вы не можете прикреплять файлы к сообщениям
Вы не можете скачивать файлы

▼ Вниз