ML
     
  Уважаемый Гость!
Вы можете поддержать проект и зарегистрироваться у наших партнеров - онлайн-стратегия MyLands. При регистрации в игре Вы получите код, который сможете активировать после регистрации на pirat.ca и получить 1000 дублонов.

Ваш код:
500cb7bd8d2cec9a8aba647a87ce41c4b76f06bd
 
     

Узы крови / Blood Ties (Сезон 1-2 Серии 1-22) (Питер Моан / Peter Mohan) [2007 г., Мистика, детектив, DVDRip] MVO [+ Original (Eng)] (ТВ3)

Ответить на тему
 
Автор
Сообщение

Пост 05-Май-2013 21:27

[Q] 

UrbanVampire

Корсар

Узы крови / Blood Ties
Сезон 1-2, Серии 1-22
Производство: Канада, Lifetime
Жанр: Мистика, детектив
Год выпуска: 2007 г.
Продолжительность: ~43 минуты х 22 серии
Перевод: Профессиональный (многоголосый, закадровый) [ТВ3]
Оригинальный аудиопоток: английский
Режиссер: Питер Моан / Peter Mohan
В главных ролях: Кристина Кокс (Виктория «Викки» Нельсон), Кайл Шмид (Генри Фицрой), Дилан Нил (Детектив Майк Селлучи), Джина Холден (Корина Феннел).
В ролях: Кит Даллас (Дэвид Грэхем), Франсуаза Йип (Кейт Лэм), Айлин Педд (Эллисон Краули), Нимет Канджи (Доктор Раджани Мохадеван), Линда Соренсен (Доктор Бетти Сагара), и др.
Описание: Героиня сериала, бывший полицейский детектив Вики Нельсон, была вынуждена уйти со службы по состоянию здоровья, поэтому стала частным сыщиком. Расследование загадочного убийства приводят ее к знакомству с 480-летним вампиром Генри Фицроем. Они, а также присоединившийся к ним влюбленный в Вики полицейский детектив Майк Селуччи, расследуют загадочные и необъяснимые дела, в которых фигурируют демоны, зомби и прочая потусторонняя чертовщина.
Сериал снят по мотивам книг Тани Хафф / Tanya Sue Huff.
Доп.информация: Существуют разночтения в количестве сезонов. Так, часть источников указывает на 2 сезона, 12 и 10 серий; иные объединяют все 22 серии в один сезон. Так или иначе, в раздаче присутствует весь сериал.

Качество видео: DVDRip
Контейнер: AVI
Видео кодек: XviD
Аудио кодек: MP3
Видео: Xvid 640x352 25fps ~1000kbps ~0.18bpf
Аудио RUS: MP3 48000Hz stereo 128kbps
Аудио ENG: MP3 48000Hz stereo 128kbps
DVDrip неизвестного автора с просторов осла.
Работа со звуком: wyatt
General
Complete name : F:\Serials - Сериалы\Blood Ties - Узы крови\Blood Ties s01\Blood.Ties.1x01.Blood.Price.(Part.1).DVDRip.Rus-Eng.avi
Format : AVI
Format/Info : Audio Video Interleave
File size : 391 MiB
Duration : 43mn 10s
Overall bit rate mode : Variable
Overall bit rate : 1 266 Kbps
Writing application : VirtualDubModRus 1.5.10.2 (build 2540/release)
Writing library : VirtualDubMod build 2540/release
Video
ID : 0
Format : MPEG-4 Visual
Format profile : Advanced [email protected]
Format settings, BVOP : 2
Format settings, QPel : No
Format settings, GMC : No warppoints
Format settings, Matrix : Default (H.263)
Muxing mode : Packed bitstream
Codec ID : XVID
Codec ID/Hint : XviD
Duration : 43mn 10s
Bit rate : 1 000 Kbps
Width : 640 pixels
Height : 352 pixels
Display aspect ratio : 16:9
Frame rate : 25.000 fps
Color space : YUV
Chroma subsampling : 4:2:0
Bit depth : 8 bits
Scan type : Progressive
Compression mode : Lossy
Bits/(Pixel*Frame) : 0.178
Stream size : 309 MiB (79%)
Writing library : XviD 1.1.2 (UTC 2006-11-01)
Audio #1
ID : 1
Format : MPEG Audio
Format version : Version 1
Format profile : Layer 3
Mode : Joint stereo
Mode extension : MS Stereo
Codec ID : 55
Codec ID/Hint : MP3
Duration : 43mn 10s
Bit rate mode : Constant
Bit rate : 128 Kbps
Channel(s) : 2 channels
Sampling rate : 48.0 KHz
Compression mode : Lossy
Stream size : 39.5 MiB (10%)
Alignment : Aligned on interleaves
Interleave, duration : 40 ms (1.00 video frame)
Interleave, preload duration : 504 ms
Audio #2
ID : 2
Format : MPEG Audio
Format version : Version 1
Format profile : Layer 3
Mode : Joint stereo
Codec ID : 55
Codec ID/Hint : MP3
Duration : 43mn 10s
Bit rate mode : Variable
Bit rate : 120 Kbps
Minimum bit rate : 32.0 Kbps
Channel(s) : 2 channels
Sampling rate : 48.0 KHz
Compression mode : Lossy
Stream size : 37.1 MiB (9%)
Alignment : Aligned on interleaves
Interleave, duration : 24 ms (0.60 video frame)
Interleave, preload duration : 600 ms
Writing library : LAME3.97b
Encoding settings : -m j -V 5 -q 3 -lowpass 16 --vbr-new -b 32
Download / Скачать

Хотите скачать бесплатно? Зарегистрируйтесь на сайте (ссылка на регистрацию). Pirat.ca - самый быстрый торрент трекер в рунете!

Как скачивать  ·   Что такое торрент  ·   Рейтинг и ограничения

vovan200976

Флибустьер

Пост 07-Май-2013 12:14 (спустя 1 день 14 часов)

[Q] 

[Профиль]  [ЛС] 
Показать сообщения:    
Ответить на тему

Текущее время: Сегодня 01:48

Часовой пояс: GMT + 4



Вы не можете начинать темы
Вы не можете отвечать на сообщения
Вы не можете редактировать свои сообщения
Вы не можете удалять свои сообщения
Вы не можете голосовать в опросах
Вы не можете прикреплять файлы к сообщениям
Вы не можете скачивать файлы

▼ Вниз