ML
     
  Уважаемый Гость!
Вы можете поддержать проект и зарегистрироваться у наших партнеров - онлайн-стратегия MyLands. При регистрации в игре Вы получите код, который сможете активировать после регистрации на pirat.ca и получить 1000 дублонов.

Ваш код:
5f4e94775bc0501caff7b254e79328d304c817d9
 
     

Компьютерщики / IT Crowd (Сезон 1-4 Серии 1-24 (4х1-6) + Спецвыпуск) + Бонус) (Грэхем Линехан / Graham Linehan) [2006-2013 г., Ситком, PDTV-Rip] VO, MVO (Кравец)

Ответить на тему
 
Автор
Сообщение

Пост 05-Май-2013 23:33

[Q] 

UrbanVampire

Корсар

Компьютерщики / IT Crowd
Сезон 1-4, Серии 1-24 (4х1-6) + Спецвыпуск "Интернет наступает" + Вырезанные сцены и смешные моменты
Производство: Великобритания, Channel4
Жанр: Ситком
Год выпуска: 2006-2013 г.
Продолжительность: ~25 минут х 24 серии + ~47 минут Спецвыпуск
Перевод Сезон 1-3: Профессиональный (одноголосый, закадровый) [Студия "Кравец"]
Перевод Сезон 4: Профессиональный (многоголосый, закадровый) [Студия "Кравец"]
Перевод Спецвыпуск: Профессиональный (многоголосый, закадровый) [Студия "Кравец"]
Перевод рекомендован Луркоморьем! Я гарантирую это!
Перевод бонусов: Субтитры (внешние, SRT)
Создатель сериала: Грэхем Линехан / Graham Linehan
В ролях: Крис О'Дауд, Ричард Айоади, Кэтрин Паркинсон, Мэт Берри и др.
Описание: Действие «The IT Crowd» происходит в офисах «Рейнхолм Индастриз» — вымышленной британской корпорации, расположенной в центре Лондона. Сюжет развивается вокруг проделок команды поддержки информационных технологий, состоящей из 3 человек и работающей в грязном, запущенном подвале, сильно контрастирующим с блеском современной архитектуры и великолепными видами Лондона, доступных остальным работникам организации.
Мосс и Рой, два технических специалиста, изображены как нелепые ботаники. Несмотря на чрезвычайную зависимость компании от их услуг, остальные работники их презирают. Раздражение Роя выражается в нежелании отвечать на звонки в техническую поддержку, надеясь на то, что телефон прекратит звонить. Широкие и запутанные познания Мосса в технических областях выражены в его чрезвычайно точных и в то же время совершенно непонятных предложениях. Однако Мосс демонстрирует полную неспособность решить практические проблемы: потушить пожар или убрать паука.
Джен, новый член команды, является безнадёжно отсталой в техническом плане, несмотря на заявление в своём резюме, что у неё «большой опыт работы с компьютерами». Поскольку Денхолм, начальник компании, также технически безграмотен, он убеждён блефом Джен на собеседовании и назначает её главой отдела ИТ.
Через три года после выпуска последней 6й серии 4го сезона создатели внезапно порадовали нас спецвыпуском "Интернет наступает".
Качество видео: PDTV-Rip
Контейнер: AVI
Видео кодек: XviD
Аудио кодек: MP3
Видео: Xvid 640x352 25fps ~850kbps ~0.15bpf
Аудио: MP3 48000Hz stereo 128kbps
General
Complete name : F:\Serials - Сериалы\IT Crowd - Компьютерщики\The IT Crowd 1 - LostFilm.TV\The.IT.Crowd.S01E06.rus.LostFilm.TV.avi
Format : AVI
Format/Info : Audio Video Interleave
File size : 179 MiB
Duration : 25mn 6s
Overall bit rate : 995 Kbps
Writing application : Nandub v1.0rc2
Writing library : Nandub build 1853/release
Video
ID : 0
Format : MPEG-4 Visual
Format profile : [email protected]
Format settings, BVOP : No
Format settings, QPel : No
Format settings, GMC : No warppoints
Format settings, Matrix : Default (H.263)
Codec ID : XVID
Codec ID/Hint : XviD
Duration : 25mn 6s
Bit rate : 854 Kbps
Width : 640 pixels
Height : 352 pixels
Display aspect ratio : 16:9
Frame rate : 25.000 fps
Color space : YUV
Chroma subsampling : 4:2:0
Bit depth : 8 bits
Scan type : Progressive
Compression mode : Lossy
Bits/(Pixel*Frame) : 0.152
Stream size : 153 MiB (86%)
Writing library : XviD 1.0.3 (UTC 2004-12-20)
Audio
ID : 1
Format : MPEG Audio
Format version : Version 1
Format profile : Layer 3
Mode : Joint stereo
Mode extension : MS Stereo
Codec ID : 55
Codec ID/Hint : MP3
Duration : 25mn 6s
Bit rate mode : Constant
Bit rate : 128 Kbps
Channel(s) : 2 channels
Sampling rate : 48.0 KHz
Compression mode : Lossy
Stream size : 23.0 MiB (13%)
Alignment : Aligned on interleaves
Interleave, duration : 24 ms (0.60 video frame)
Interleave, preload duration : 480 ms
Качество видео: PDTV-Rip
Контейнер: AVI
Видео кодек: XviD
Аудио кодек: MP3
Видео:Xvid 640x352 25fps ~850kbps ~0.15bpf
Аудио: MP3 48000Hz stereo 128kbps
General
Complete name : F:\Serials - Сериалы\IT Crowd - Компьютерщики\The IT Crowd 2 - LostFilm.TV\The.IT.Crowd.S02E02.rus.Lostfilm.tv.avi
Format : AVI
Format/Info : Audio Video Interleave
File size : 177 MiB
Duration : 23mn 14s
Overall bit rate : 1 064 Kbps
Writing application : Nandub v1.0rc2
Writing library : Nandub build 1853/release
Video
ID : 0
Format : MPEG-4 Visual
Format profile : Advanced [email protected]
Format settings, BVOP : 1
Format settings, QPel : No
Format settings, GMC : No warppoints
Format settings, Matrix : Default (MPEG)
Muxing mode : Packed bitstream
Codec ID : XVID
Codec ID/Hint : XviD
Duration : 23mn 14s
Bit rate : 924 Kbps
Width : 640 pixels
Height : 352 pixels
Display aspect ratio : 16:9
Frame rate : 25.000 fps
Color space : YUV
Chroma subsampling : 4:2:0
Bit depth : 8 bits
Scan type : Progressive
Compression mode : Lossy
Bits/(Pixel*Frame) : 0.164
Stream size : 153 MiB (87%)
Writing library : XviD 1.2.0.dev47 (UTC 2006-11-01)
Audio
ID : 1
Format : MPEG Audio
Format version : Version 1
Format profile : Layer 3
Mode : Joint stereo
Mode extension : MS Stereo
Codec ID : 55
Codec ID/Hint : MP3
Duration : 23mn 14s
Bit rate mode : Constant
Bit rate : 128 Kbps
Channel(s) : 2 channels
Sampling rate : 48.0 KHz
Compression mode : Lossy
Stream size : 21.3 MiB (12%)
Alignment : Aligned on interleaves
Interleave, duration : 24 ms (0.60 video frame)
Interleave, preload duration : 480 ms
Качество видео: PDTV-Rip
Контейнер: AVI
Видео кодек: XviD
Аудио кодек: MP3
Видео:Xvid 640x352 25fps ~850kbps ~0.15bpf
Аудио: MP3 48000Hz stereo 128kbps
General
Complete name : F:\Serials - Сериалы\IT Crowd - Компьютерщики\The IT Crowd 3 - LostFilm.TV\The.IT.Crowd.s03e01.rus.LostFilm.TV.avi
Format : AVI
Format/Info : Audio Video Interleave
File size : 175 MiB
Duration : 23mn 5s
Overall bit rate : 1 059 Kbps
Writing application : Nandub v1.0rc2
Writing library : Nandub build 1853/release
Video
ID : 0
Format : MPEG-4 Visual
Format profile : Advanced [email protected]
Format settings, BVOP : 2
Format settings, QPel : No
Format settings, GMC : No warppoints
Format settings, Matrix : Default (H.263)
Muxing mode : Packed bitstream
Codec ID : XVID
Codec ID/Hint : XviD
Duration : 23mn 5s
Bit rate : 918 Kbps
Width : 640 pixels
Height : 352 pixels
Display aspect ratio : 16:9
Frame rate : 25.000 fps
Color space : YUV
Chroma subsampling : 4:2:0
Bit depth : 8 bits
Scan type : Progressive
Compression mode : Lossy
Bits/(Pixel*Frame) : 0.163
Stream size : 152 MiB (87%)
Writing library : XviD 1.1.2 (UTC 2006-11-01)
Audio
ID : 1
Format : MPEG Audio
Format version : Version 1
Format profile : Layer 3
Mode : Joint stereo
Mode extension : MS Stereo
Codec ID : 55
Codec ID/Hint : MP3
Duration : 23mn 5s
Bit rate mode : Constant
Bit rate : 128 Kbps
Channel(s) : 2 channels
Sampling rate : 48.0 KHz
Compression mode : Lossy
Stream size : 21.1 MiB (12%)
Alignment : Aligned on interleaves
Interleave, duration : 24 ms (0.60 video frame)
Interleave, preload duration : 480 ms
Качество видео: WebDL-Rip
Контейнер: AVI
Видео кодек: XviD
Аудио кодек: MP3
Видео:Xvid 624x352 25fps ~2000kbps ~0.36bpf
Аудио: MP3 48000Hz stereo 192kbps
General
Complete name : F:\Serials - Сериалы\IT Crowd - Компьютерщики\The IT Crowd 4 - LostFilm.TV\The.IT.Crowd.s04e01.rus.LostFilm.TV.avi
Format : AVI
Format/Info : Audio Video Interleave
File size : 385 MiB
Duration : 24mn 31s
Overall bit rate : 2 195 Kbps
Writing application : Nandub v1.0rc2
Writing library : Nandub build 1853/release
Video
ID : 0
Format : MPEG-4 Visual
Format profile : Advanced [email protected]
Format settings, BVOP : No
Format settings, QPel : No
Format settings, GMC : No warppoints
Format settings, Matrix : Custom
Codec ID : XVID
Codec ID/Hint : XviD
Duration : 24mn 31s
Bit rate : 1 990 Kbps
Width : 624 pixels
Height : 352 pixels
Display aspect ratio : 16:9
Frame rate : 25.000 fps
Color space : YUV
Chroma subsampling : 4:2:0
Bit depth : 8 bits
Scan type : Progressive
Compression mode : Lossy
Bits/(Pixel*Frame) : 0.362
Stream size : 349 MiB (91%)
Writing library : XviD 1.2.1 (UTC 2008-12-04)
Audio
ID : 1
Format : MPEG Audio
Format version : Version 1
Format profile : Layer 3
Mode : Joint stereo
Codec ID : 55
Codec ID/Hint : MP3
Duration : 24mn 31s
Bit rate mode : Constant
Bit rate : 192 Kbps
Channel(s) : 2 channels
Sampling rate : 48.0 KHz
Compression mode : Lossy
Stream size : 33.7 MiB (9%)
Alignment : Aligned on interleaves
Interleave, duration : 24 ms (0.60 video frame)
Interleave, preload duration : 480 ms
Контейнер: AVI
Видео кодек: XviD
Аудио кодек: MP3
Видео: Xvid 512x288 25fps ~600kbps ~0.16bpf
Аудио: MP3 48000Hz stereo 128kbps
General
Complete name : F:\Serials - Сериалы\IT Crowd - Компьютерщики\Дополнения\it-deleted.avi
Format : AVI
Format/Info : Audio Video Interleave
File size : 49.5 MiB
Duration : 9mn 18s
Overall bit rate : 743 Kbps
Writing application : FairUse Wizard - http://fairusewizard.com
Writing library : The best and REALLY easy backup tool
Video
ID : 0
Format : MPEG-4 Visual
Format profile : Advanced [email protected]
Format settings, BVOP : 1
Format settings, QPel : No
Format settings, GMC : No warppoints
Format settings, Matrix : Default (H.263)
Muxing mode : Packed bitstream
Codec ID : XVID
Codec ID/Hint : XviD
Duration : 9mn 18s
Bit rate : 605 Kbps
Width : 512 pixels
Height : 288 pixels
Display aspect ratio : 16:9
Frame rate : 25.000 fps
Color space : YUV
Chroma subsampling : 4:2:0
Bit depth : 8 bits
Scan type : Progressive
Compression mode : Lossy
Bits/(Pixel*Frame) : 0.164
Stream size : 40.3 MiB (81%)
Writing library : XviD 1.1.0 (UTC 2005-11-22)
Audio
ID : 1
Format : MPEG Audio
Format version : Version 1
Format profile : Layer 3
Mode : Joint stereo
Mode extension : MS Stereo
Codec ID : 55
Codec ID/Hint : MP3
Duration : 9mn 18s
Bit rate mode : Constant
Bit rate : 128 Kbps
Channel(s) : 2 channels
Sampling rate : 48.0 KHz
Compression mode : Lossy
Stream size : 8.52 MiB (17%)
Alignment : Aligned on interleaves
Interleave, duration : 40 ms (1.00 video frame)
Interleave, preload duration : 504 ms
Writing library : LAME3.97b
Encoding settings : -m j -V 4 -q 2 -lowpass 17 -b 128
Контейнер: AVI
Видео кодек: XviD
Аудио кодек: MP3
Видео: Xvid 720x400 25fps 1915kbps 0.266bpf
Аудио: MP3 48000Hz stereo 192kbps
General
Complete name : F:\Serials - Сериалы\IT Crowd - Компьютерщики\The.IT.Crowd.S04.The.Last.Byte.rus.LostFilm.TV.avi
Format : AVI
Format/Info : Audio Video Interleave
File size : 722 MiB
Duration : 47mn 41s
Overall bit rate mode : Variable
Overall bit rate : 2 117 Kbps
Writing application : Nandub v1.0rc2
Writing library : Nandub build 1853/release
Video
ID : 0
Format : MPEG-4 Visual
Format profile : [email protected]
Format settings, BVOP : No
Format settings, QPel : No
Format settings, GMC : No warppoints
Format settings, Matrix : Default (H.263)
Codec ID : XVID
Codec ID/Hint : XviD
Duration : 47mn 41s
Bit rate : 1 915 Kbps
Width : 720 pixels
Height : 400 pixels
Display aspect ratio : 16:9
Frame rate : 25.000 fps
Color space : YUV
Chroma subsampling : 4:2:0
Bit depth : 8 bits
Scan type : Progressive
Compression mode : Lossy
Bits/(Pixel*Frame) : 0.266
Stream size : 653 MiB (90%)
Writing library : XviD 1.2.1 (UTC 2008-12-04)
Audio
ID : 1
Format : MPEG Audio
Format version : Version 1
Format profile : Layer 3
Mode : Joint stereo
Mode extension : MS Stereo
Codec ID : 55
Codec ID/Hint : MP3
Duration : 47mn 41s
Bit rate mode : Variable
Bit rate : 192 Kbps
Channel count : 2 channels
Sampling rate : 48.0 KHz
Compression mode : Lossy
Stream size : 64.5 MiB (9%)
Alignment : Aligned on interleaves
Interleave, duration : 24 ms (0.60 video frame)
Interleave, preload duration : 491 ms
Writing library : LAME3.97b
Encoding settings : -m j -V 4 -q 3 -lowpass 18.6 --abr 192
2006 Rose d’Or — Лучшая комедия положений
2007 British Academy of Film and Television Arts — Лучшая комедия положений
2008 British Academy of Film and Television Arts — Лучшая комедия положений
Download / Скачать

Хотите скачать бесплатно? Зарегистрируйтесь на сайте (ссылка на регистрацию). Pirat.ca - самый быстрый торрент трекер в рунете!

Как скачивать  ·   Что такое торрент  ·   Рейтинг и ограничения



Последний раз редактировалось: UrbanVampire (2013-10-30 15:57), всего редактировалось 7 раз(а)

Silent_Demon

Морской Волк

Пост 05-Май-2013 23:41 (спустя 7 минут)

[Q] 


_________________
Я долго искал соратников среди ангелов и, прожив свою грешную жизнь, осознал себя в окружении демонов.
[Профиль]  [ЛС] 

UrbanVampire ®

Корсар

1076

Пост 06-Май-2013 00:01 (спустя 19 минут)

[Q] 

Прошу модератора рассмотреть соответствие раздачи пункту 16 Правил.
доводы "за":
- размер изображения различается незначительно (640х352 и 624х352)
- качество аудио различается незначительно (128 и 192 kbps)
- используются одни и те же кодеки (XviD для видео и MP3 для аудио)
- несмотря на то, что озвучка первых трех сезонов одноголосая, а четвертого - многоголосая, вся озвучка выполнена студией Андрея Кравеца.
[Профиль]  [ЛС] 

Пост 06-Май-2013 10:06 (спустя 10 часов)

Топик был перенесен из форума Зарубежные сериалы (Трюм) в форум Зарубежные сериалы

kugesan
 

UrbanVampire ®

Корсар

1076

Пост 30-Окт-2013 15:50 (спустя 5 месяцев 24 дня)

[Q] 

Через три года после выпуска последней 6й серии 4го сезона создатели внезапно порадовали нас спецвыпуском "Интернет наступает".
[Профиль]  [ЛС] 

Pirrr

Корсар

53

Пост 14-Ноя-2013 04:14 (спустя 14 дней)

[Q] 

Всем качать!!! Автору респект!!!
[Профиль]  [ЛС] 
Показать сообщения:    
Ответить на тему

Текущее время: Сегодня 15:32

Часовой пояс: GMT + 4



Вы не можете начинать темы
Вы не можете отвечать на сообщения
Вы не можете редактировать свои сообщения
Вы не можете удалять свои сообщения
Вы не можете голосовать в опросах
Вы не можете прикреплять файлы к сообщениям
Вы не можете скачивать файлы

▼ Вниз